<?xml version="1.0" standalone="no"?>
<!DOCTYPE svg PUBLIC "-//W3C//DTD SVG 1.1//EN" "http://www.w3.org/Graphics/SVG/1.1/DTD/svg11.dtd" >
<svg xmlns="http://www.w3.org/2000/svg" xmlns:xlink="http://www.w3.org/1999/xlink" version="1.1">
<metadata>
Created by FontForge 20161116 at Tue Jun 27 14:42:17 2017
 By Jimmy Warting
Generated in 2013 by FontLab Studio. Copyright info pending.
</metadata>
<defs>
<font id="CircularStd-BlackItalic" horiz-adv-x="587" >
  <font-face 
    font-family="CircularStd"
    font-weight="900"
    font-style="italic"
    font-stretch="normal"
    units-per-em="1000"
    panose-1="2 11 10 4 2 1 1 1 1 2"
    ascent="809"
    descent="-191"
    x-height="497"
    cap-height="709"
    bbox="-139 -268 1633 1016"
    underline-thickness="80"
    underline-position="-195"
    slope="-12"
    stemh="131"
    stemv="159"
    unicode-range="U+000D-FEFF"
  />
<missing-glyph horiz-adv-x="593" 
d="M-4 0v709h601v-709h-601zM120 124h353v461h-353v-461z" />
    <glyph glyph-name="f_f" unicode="ff" horiz-adv-x="711" 
d="M175 0h-153l79 369h-84l27 128h84l13 62c27 124 105 174 206 174c30 0 69 -8 89 -19l-26 -124c0 -1 -13 9 -45 9c-33 0 -67 -15 -76 -55l-10 -47h182l13 62c27 124 105 174 205 174c31 0 70 -8 90 -19l-26 -124c0 -1 -13 9 -45 9c-34 0 -67 -15 -76 -55l-10 -47h103
l-28 -128h-102l-77 -369h-153l78 369h-181z" />
    <glyph glyph-name="f_f_i" unicode="ffi" horiz-adv-x="976" 
d="M805 642c0 54 42 96 97 96c48 0 80 -33 80 -77c0 -58 -47 -96 -98 -96c-46 0 -79 33 -79 77zM175 0h-153l79 369h-84l27 128h84l13 62c27 124 105 174 206 174c30 0 69 -8 89 -19l-26 -124c0 -1 -13 9 -45 9c-33 0 -67 -15 -76 -55l-10 -47h182l13 62
c27 124 105 174 205 174c31 0 70 -8 90 -19l-26 -124c0 -1 -13 9 -45 9c-34 0 -67 -15 -76 -55l-10 -47h326l-105 -497h-152l79 369h-175l-77 -369h-153l78 369h-181z" />
    <glyph glyph-name="f_f_l" unicode="ffl" horiz-adv-x="983" 
d="M175 0h-153l79 369h-84l27 128h84l13 62c27 124 105 174 206 174c30 0 69 -8 89 -19l-26 -124c0 -1 -13 9 -45 9c-33 0 -67 -15 -76 -55l-10 -47h182l13 62c27 124 105 174 205 174c31 0 70 -8 90 -19l-26 -124c0 -1 -13 9 -45 9c-34 0 -67 -15 -76 -55l-10 -47h182
l47 227h153l-154 -724h-152l78 369h-181l-77 -369h-153l78 369h-181z" />
    <glyph glyph-name="f_i" unicode="fi" horiz-adv-x="646" 
d="M252 369l-77 -369h-153l79 369h-84l27 128h84l16 71c26 115 102 165 203 165c30 0 69 -8 89 -19l-26 -124c0 -1 -15 9 -47 9c-40 0 -65 -21 -75 -63l-9 -39h330l-106 -497h-152l78 369h-177zM475 642c0 54 43 96 98 96c47 0 79 -33 79 -77c0 -58 -47 -96 -98 -96
c-46 0 -79 33 -79 77z" />
    <glyph glyph-name="f_l" unicode="fl" horiz-adv-x="645" 
d="M252 369l-77 -369h-153l79 369h-84l27 128h84l16 71c26 115 102 165 203 165c30 0 69 -8 89 -19l-26 -124c0 -1 -15 9 -47 9c-41 0 -66 -24 -75 -64l-9 -38h176l49 227h152l-154 -724h-152l78 369h-176z" />
    <glyph glyph-name=".notdef" horiz-adv-x="593" 
d="M-4 0v709h601v-709h-601zM120 124h353v461h-353v-461z" />
    <glyph glyph-name=".null" horiz-adv-x="0" 
 />
    <glyph glyph-name=".null" horiz-adv-x="0" 
 />
    <glyph glyph-name="uni000D" unicode="&#xd;" horiz-adv-x="261" 
 />
    <glyph glyph-name="space" unicode=" " horiz-adv-x="261" 
 />
    <glyph glyph-name="exclam" unicode="!" horiz-adv-x="324" 
d="M72 222l68 487h182l-138 -487h-112zM16 67c0 53 44 96 95 96c48 0 78 -36 78 -77c0 -54 -46 -96 -94 -96c-47 0 -79 35 -79 77z" />
    <glyph glyph-name="quotedbl" unicode="&#x22;" horiz-adv-x="435" 
d="M132 366h-52l-11 173c0 2 -1 13 -1 35c0 50 39 86 88 86c46 0 78 -31 78 -72c0 -15 -7 -33 -14 -47zM328 366h-52l-11 173c0 2 -1 13 -1 35c0 50 39 86 88 86c46 0 78 -31 78 -72c0 -15 -7 -33 -14 -47z" />
    <glyph glyph-name="numbersign" unicode="#" horiz-adv-x="733" 
d="M80 392v105h144l33 151h114l-33 -151h126l33 151h115l-33 -151h123v-105h-145l-28 -130h122v-106h-145l-33 -156h-115l33 156h-126l-33 -156h-114l33 156h-120v106h143l28 130h-122zM316 392l-28 -130h126l28 130h-126z" />
    <glyph glyph-name="dollar" unicode="$" horiz-adv-x="579" 
d="M138 -116l24 116c-95 31 -151 107 -151 196c0 7 0 15 1 25l143 24c-1 -7 -2 -14 -2 -21c0 -54 30 -107 110 -108c53 0 80 26 80 64c0 26 -11 46 -43 60l-75 32c-90 38 -133 101 -133 179c0 119 96 199 211 210l21 105h126l-25 -116c107 -34 138 -125 138 -179l-145 -24
c0 19 -8 86 -92 86c-48 0 -77 -34 -77 -69c0 -30 18 -49 42 -60l69 -29c103 -43 143 -106 143 -185c0 -98 -78 -195 -218 -204l-21 -102h-126z" />
    <glyph glyph-name="percent" unicode="%" horiz-adv-x="802" 
d="M191 430c32 0 67 26 67 75c0 31 -19 55 -51 55c-33 0 -67 -27 -67 -75c0 -32 19 -54 51 -55zM183 329c-88 0 -150 66 -150 150c0 108 89 182 182 182c87 0 150 -67 150 -150c0 -109 -91 -182 -182 -182zM596 88c32 0 67 26 67 75c0 31 -19 55 -51 55
c-33 0 -67 -27 -67 -75c0 -32 19 -54 51 -55zM588 -13c-88 0 -150 66 -150 150c0 108 89 182 182 182c87 0 150 -67 150 -150c0 -109 -91 -182 -182 -182zM762 649l-587 -649h-134l587 649h134z" />
    <glyph glyph-name="ampersand" unicode="&#x26;" horiz-adv-x="679" 
d="M612 0h-168l-47 67l-14 -12c-50 -42 -106 -64 -172 -64c-134 0 -205 92 -205 183c0 105 66 161 159 212l8 4l-6 9c-23 33 -48 80 -48 131c0 129 108 194 214 194c114 0 190 -74 190 -166c-1 -92 -73 -151 -141 -188l-20 -11l71 -103l220 183l-41 -192l-109 -91zM154 190
c0 -36 31 -69 74 -69c31 0 58 12 89 38l10 8l-87 126l-16 -9c-43 -23 -70 -49 -70 -94zM294 456l29 16c40 21 58 49 58 75c0 31 -23 54 -60 54c-28 0 -63 -18 -63 -66c0 -22 12 -43 23 -59z" />
    <glyph glyph-name="quotesingle" unicode="'" horiz-adv-x="239" 
d="M132 366h-52l-11 173c0 2 -1 13 -1 35c0 50 39 86 88 86c46 0 78 -31 78 -72c0 -15 -7 -33 -14 -47z" />
    <glyph glyph-name="parenleft" unicode="(" horiz-adv-x="340" 
d="M24 209c0 284 116 477 337 623l68 -90c-159 -113 -278 -275 -278 -524c0 -120 41 -236 103 -324l-100 -71c-67 92 -130 233 -130 386z" />
    <glyph glyph-name="parenright" unicode=")" horiz-adv-x="344" 
d="M313 443c0 -267 -124 -468 -340 -620l-69 90c155 120 281 281 281 530c0 116 -38 230 -102 316l102 70c71 -99 128 -231 128 -386z" />
    <glyph glyph-name="asterisk" unicode="*" horiz-adv-x="464" 
d="M356 709l-25 -124l120 37l18 -114l-122 -35l55 -95l-103 -66l-57 101l-94 -104l-83 69l95 103l-108 35l51 107l107 -36l22 122h124z" />
    <glyph glyph-name="plus" unicode="+" horiz-adv-x="590" 
d="M354 236v-195h-128v195h-190v124h190v195h128v-195h190v-124h-190z" />
    <glyph glyph-name="comma" unicode="," horiz-adv-x="292" 
d="M-8 77c0 61 49 103 108 103c62 0 99 -47 99 -106c0 -139 -109 -240 -243 -248l16 73c45 4 112 42 125 103c-4 -2 -15 -4 -23 -4c-51 0 -82 35 -82 79z" />
    <glyph glyph-name="hyphen" unicode="-" horiz-adv-x="368" 
d="M306 233h-299l29 137h300z" />
    <glyph glyph-name="period" unicode="." horiz-adv-x="290" 
d="M84 -7c-57 0 -93 43 -93 92c0 59 51 110 115 110c56 0 91 -41 91 -91c0 -59 -50 -111 -113 -111z" />
    <glyph glyph-name="slash" unicode="/" horiz-adv-x="475" 
d="M569 724l-516 -739h-142l515 739h143z" />
    <glyph glyph-name="zero" unicode="0" horiz-adv-x="613" 
d="M182 238c0 -67 27 -114 93 -114c115 0 154 187 154 287c0 63 -24 114 -94 114c-114 0 -153 -185 -153 -287zM268 -15c-177 0 -242 127 -242 249c0 149 70 430 318 430c175 0 242 -126 242 -250c0 -149 -72 -429 -318 -429z" />
    <glyph glyph-name="one" unicode="1" horiz-adv-x="382" 
d="M224 0h-157l90 428h-135l22 104c88 1 156 51 182 117h135z" />
    <glyph glyph-name="two" unicode="2" horiz-adv-x="552" 
d="M-35 0c1 1 4 27 4 28c21 120 75 210 210 269l117 51c60 26 93 55 93 103c0 37 -21 74 -83 74c-69 0 -98 -53 -98 -128l-145 15c0 144 97 252 254 252c155 0 228 -92 228 -195c0 -109 -67 -182 -176 -230l-135 -59c-22 -10 -42 -25 -57 -48h297l-28 -132h-481z" />
    <glyph glyph-name="three" unicode="3" horiz-adv-x="545" 
d="M200 293l-51 109l188 115h-271l26 132h471l-29 -145l-180 -113c81 -11 141 -77 141 -167c0 -123 -107 -239 -265 -239s-244 106 -244 216c0 3 0 7 1 13l154 17c-1 -7 -1 -12 -1 -15c0 -56 37 -95 93 -95c62 0 103 40 103 99c0 54 -42 83 -89 83c-16 0 -35 -4 -47 -10z
" />
    <glyph glyph-name="four" unicode="4" horiz-adv-x="599" 
d="M-19 135l34 160l346 354h187l-81 -382h105l-28 -132h-105l-28 -135h-157l28 135h-301zM310 267l45 213l-208 -213h163z" />
    <glyph glyph-name="five" unicode="5" horiz-adv-x="543" 
d="M-5 197l146 27c-1 -5 -1 -10 -1 -11c0 -49 37 -95 96 -95c55 0 107 36 107 106c0 55 -45 84 -95 84c-36 0 -65 -14 -84 -32l-128 58l132 315h375l-28 -132h-261l-47 -114c26 18 64 24 94 24c131 0 201 -74 201 -187c0 -139 -102 -256 -267 -256c-149 0 -240 105 -240 213
z" />
    <glyph glyph-name="six" unicode="6" horiz-adv-x="579" 
d="M597 614l-66 -120c-33 18 -80 28 -126 28c-85 0 -178 -47 -214 -149c31 42 89 59 136 59c128 0 198 -75 198 -186c0 -149 -112 -260 -264 -260c-142 0 -245 102 -245 254c0 231 165 416 405 416c83 0 147 -20 176 -42zM277 308c-57 0 -106 -42 -106 -103
c0 -50 35 -86 91 -86s105 40 105 104c0 50 -36 85 -90 85z" />
    <glyph glyph-name="seven" unicode="7" horiz-adv-x="545" 
d="M569 649l-27 -126c-53 -34 -270 -207 -364 -523h-166c75 278 269 471 333 518h-305l28 131h501z" />
    <glyph glyph-name="eight" unicode="8" horiz-adv-x="559" 
d="M296 387c55 0 87 39 87 80c0 32 -23 67 -77 67c-60 0 -86 -43 -86 -80c0 -31 19 -67 76 -67zM149 190c0 -46 39 -77 91 -77c63 0 99 46 99 89c0 37 -26 76 -92 76c-64 0 -98 -48 -98 -88zM490 185c0 -128 -127 -200 -257 -200c-121 0 -237 56 -237 182
c0 88 68 151 160 171c-46 21 -86 72 -86 132c0 114 105 194 245 194c147 0 227 -79 227 -177c0 -76 -53 -139 -135 -165c52 -21 83 -82 83 -137z" />
    <glyph glyph-name="nine" unicode="9" horiz-adv-x="566" 
d="M196 427c0 -49 35 -83 89 -83c58 0 105 40 105 101c0 51 -35 86 -91 86s-103 -40 -103 -104zM-25 37l62 120c40 -23 82 -33 125 -33c95 0 179 55 210 151c-33 -37 -81 -55 -128 -55c-125 0 -205 85 -205 198c0 150 118 246 265 246c142 0 245 -101 245 -254
c0 -266 -176 -425 -389 -425c-66 0 -131 15 -185 52z" />
    <glyph glyph-name="colon" unicode=":" horiz-adv-x="301" 
d="M87 -7c-56 0 -91 42 -91 90c0 57 50 107 112 107c55 0 89 -40 89 -89c0 -57 -49 -108 -110 -108zM153 308c-56 0 -91 42 -91 90c0 57 50 107 112 107c55 0 89 -40 89 -89c0 -57 -49 -108 -110 -108z" />
    <glyph glyph-name="semicolon" unicode=";" horiz-adv-x="301" 
d="M-7 71c0 58 47 98 103 98c59 0 94 -45 94 -101c0 -132 -103 -228 -231 -235l15 69c43 4 107 40 119 98c-4 -2 -14 -4 -22 -4c-48 0 -78 33 -78 75zM153 307c-56 0 -91 42 -91 90c0 57 50 107 112 107c55 0 89 -40 89 -89c0 -57 -49 -108 -110 -108z" />
    <glyph glyph-name="less" unicode="&#x3c;" horiz-adv-x="501" 
d="M21 244v108l439 224v-138l-289 -137l289 -139v-140z" />
    <glyph glyph-name="equal" unicode="=" horiz-adv-x="619" 
d="M56 339v122h495v-122h-495zM56 138v122h495v-122h-495z" />
    <glyph glyph-name="greater" unicode="&#x3e;" horiz-adv-x="501" 
d="M478 353v-108l-439 -223v137l288 138l-288 139v140z" />
    <glyph glyph-name="question" unicode="?" horiz-adv-x="509" 
d="M267 220h-116v7c0 57 13 130 103 181l58 32c36 20 51 51 51 81c0 34 -23 69 -78 69c-67 0 -100 -55 -100 -115l-138 13c0 131 100 236 247 236c153 0 225 -93 225 -181c0 -100 -56 -163 -136 -209l-43 -25c-46 -26 -67 -47 -73 -89zM109 67c0 53 44 96 95 96
c48 0 78 -36 78 -77c0 -54 -46 -96 -94 -96c-47 0 -79 35 -79 77z" />
    <glyph glyph-name="at" unicode="@" horiz-adv-x="799" 
d="M425 -48c-234 0 -403 151 -403 378c0 234 178 395 396 395c207 0 359 -141 359 -329c0 -153 -105 -253 -208 -255h-4c-55 0 -84 31 -93 58c-23 -40 -68 -60 -114 -60c-85 0 -151 71 -151 172c0 130 91 223 195 223c36 0 77 -17 92 -53l8 40h102l-51 -244
c-1 -5 -1 -11 -1 -14c0 -9 6 -26 27 -26c46 0 94 63 94 158c0 138 -106 231 -254 231c-164 0 -287 -117 -287 -293c0 -162 109 -284 293 -284c57 0 119 14 174 52l51 -73c-52 -46 -150 -76 -225 -76zM472 365c0 42 -21 70 -60 70c-55 0 -92 -51 -92 -115
c0 -49 20 -83 63 -83c50 0 88 53 89 128z" />
    <glyph glyph-name="A" unicode="A" horiz-adv-x="693" 
d="M463 0l-19 144h-263l-79 -144h-177l412 709h183l107 -709h-164zM394 532l-133 -244h164z" />
    <glyph glyph-name="B" unicode="B" horiz-adv-x="615" 
d="M152 709h245c129 0 191 -72 191 -170c0 -81 -58 -159 -134 -180c41 -14 93 -64 93 -139c0 -130 -103 -220 -249 -220h-296zM246 425h80c61 0 103 34 103 89c0 40 -25 64 -81 64h-70zM183 129h94c67 0 115 37 115 96c0 42 -28 70 -85 70h-88z" />
    <glyph glyph-name="C" unicode="C" horiz-adv-x="718" 
d="M415 723l4 1c202 0 286 -132 302 -230l-155 -48c-10 52 -49 126 -158 126c-103 0 -215 -89 -215 -255c0 -101 64 -178 170 -178c102 0 147 72 168 119l141 -57c-34 -91 -130 -217 -323 -217c-191 0 -318 138 -318 324c0 261 189 415 384 415z" />
    <glyph glyph-name="D" unicode="D" horiz-adv-x="713" 
d="M189 152h120c136 0 211 129 211 247c0 94 -48 162 -160 162h-85zM302 0h-300l148 709h219c198 0 313 -122 313 -299c0 -264 -183 -410 -380 -410z" />
    <glyph glyph-name="E" unicode="E" horiz-adv-x="581" 
d="M451 0h-449l150 709h449l-32 -149h-291l-29 -135h264l-29 -139h-264l-29 -136h292z" />
    <glyph glyph-name="F" unicode="F" horiz-adv-x="565" 
d="M160 0h-158l150 709h456l-32 -150h-299l-31 -150h263l-31 -144h-261z" />
    <glyph glyph-name="G" unicode="G" horiz-adv-x="763" 
d="M407 574c-102 0 -214 -85 -214 -257c0 -108 59 -186 169 -186c100 0 154 52 176 114h-207l29 134h352l-80 -379h-119v69c-36 -48 -100 -80 -181 -80c-184 0 -301 132 -301 319c0 261 185 415 383 415l4 1c202 0 290 -123 306 -221l-155 -48c-10 52 -51 119 -162 119z" />
    <glyph glyph-name="H" unicode="H" horiz-adv-x="732" 
d="M580 0h-159l60 284h-261l-61 -284h-157l150 709h158l-59 -276h262l59 276h159z" />
    <glyph glyph-name="I" unicode="I" horiz-adv-x="313" 
d="M161 0h-159l150 709h160z" />
    <glyph glyph-name="J" unicode="J" horiz-adv-x="558" 
d="M407 709h160l-108 -511c-27 -129 -126 -213 -251 -213c-135 0 -215 83 -215 199c0 20 2 44 7 66l5 22l153 23l-9 -47c-2 -9 -4 -31 -4 -39c0 -37 21 -74 72 -74c45 0 76 36 86 84z" />
    <glyph glyph-name="K" unicode="K" horiz-adv-x="703" 
d="M429 0l-137 277l-92 -84l-41 -193h-157l150 709h158l-59 -276l302 276h218l-356 -322l202 -387h-188z" />
    <glyph glyph-name="L" unicode="L" horiz-adv-x="559" 
d="M460 0h-458l150 709h158l-119 -558h301z" />
    <glyph glyph-name="M" unicode="M" horiz-adv-x="955" 
d="M802 0h-155l100 469l-280 -469h-126l-91 463l-99 -463h-149l150 709h196l97 -478l278 478h230z" />
    <glyph glyph-name="N" unicode="N" horiz-adv-x="753" 
d="M601 0h-156l-188 465l-99 -465h-156l150 709h180l170 -432l92 432h158z" />
    <glyph glyph-name="O" unicode="O" horiz-adv-x="760" 
d="M31 307c0 261 185 417 382 417c192 0 317 -130 317 -321c0 -261 -186 -418 -383 -418c-189 0 -316 131 -316 322zM568 397c0 104 -58 175 -163 175c-103 0 -212 -90 -212 -256c0 -106 60 -177 162 -177c103 0 213 92 213 258z" />
    <glyph glyph-name="P" unicode="P" horiz-adv-x="593" 
d="M152 709h234c129 0 220 -82 220 -203c0 -155 -113 -249 -280 -250h-112l-55 -256h-157zM346 573h-64l-39 -181h81c87 0 119 51 119 100s-27 81 -97 81z" />
    <glyph glyph-name="Q" unicode="Q" horiz-adv-x="761" 
d="M31 307c0 261 185 417 382 417c192 0 317 -130 317 -321c0 -135 -50 -241 -124 -313l68 -99l-121 -76l-67 97c-44 -18 -91 -27 -139 -27c-189 0 -316 131 -316 322zM303 279l120 77l91 -132c32 43 54 101 54 173c0 104 -58 175 -163 175c-103 0 -212 -90 -212 -256
c0 -106 60 -177 162 -177c13 0 27 1 41 5z" />
    <glyph glyph-name="R" unicode="R" horiz-adv-x="635" 
d="M381 0l-91 264h-74l-56 -264h-158l150 709h255c136 0 207 -79 207 -184c0 -118 -72 -203 -172 -237l106 -288h-167zM244 400h90c73 0 117 43 117 102c0 43 -25 71 -83 71h-87z" />
    <glyph glyph-name="S" unicode="S" horiz-adv-x="586" 
d="M264 122c61 0 96 29 96 74c0 28 -11 51 -51 68l-83 34c-96 39 -140 110 -140 195c0 140 121 230 258 230c195 0 245 -134 245 -207l-147 -24c0 20 -9 94 -105 94c-58 0 -92 -40 -92 -79c0 -36 22 -55 50 -67l75 -32c110 -47 154 -113 154 -200c0 -111 -93 -223 -257 -223
c-201 0 -271 135 -271 227c0 13 1 21 2 27l145 25c-1 -5 -2 -14 -2 -23c0 -59 36 -117 123 -119z" />
    <glyph glyph-name="T" unicode="T" horiz-adv-x="607" 
d="M630 558h-198l-119 -558h-158l118 558h-208l33 151h565z" />
    <glyph glyph-name="U" unicode="U" horiz-adv-x="680" 
d="M529 709h160l-102 -481c-35 -162 -150 -243 -288 -243c-154 0 -256 94 -256 234c0 32 5 56 12 91l83 399h160l-86 -407c-5 -24 -8 -47 -8 -60c0 -59 31 -101 109 -101c62 0 106 38 122 116z" />
    <glyph glyph-name="V" unicode="V" horiz-adv-x="688" 
d="M240 709l63 -502l271 502h180l-408 -709h-163l-108 709h165z" />
    <glyph glyph-name="W" unicode="W" horiz-adv-x="1019" 
d="M497 709h162l51 -458l207 458h171l-342 -709h-159l-51 470l-244 -470h-169l-42 709h159l21 -457z" />
    <glyph glyph-name="X" unicode="X" horiz-adv-x="676" 
d="M309 218l-177 -218h-201l312 359l-162 350h183l93 -219l178 219h200l-311 -359l163 -350h-185z" />
    <glyph glyph-name="Y" unicode="Y" horiz-adv-x="634" 
d="M227 296l-154 413h167l90 -262l182 262h190l-317 -414l-62 -295h-159z" />
    <glyph glyph-name="Z" unicode="Z" horiz-adv-x="643" 
d="M522 0h-552l33 152l416 406h-321l32 151h538l-30 -146l-427 -412h343z" />
    <glyph glyph-name="bracketleft" unicode="[" horiz-adv-x="336" 
d="M218 -171h-249l211 994h250l-24 -114h-124l-163 -764h124z" />
    <glyph glyph-name="backslash" unicode="\" horiz-adv-x="454" 
d="M266 -15l-214 739h128l214 -739h-128z" />
    <glyph glyph-name="bracketright" unicode="]" horiz-adv-x="344" 
d="M142 -171h-248l25 116h123l162 764h-124l24 114h250z" />
    <glyph glyph-name="asciicircum" unicode="^" horiz-adv-x="570" 
d="M241 709h112l200 -359h-138l-116 217l-117 -217h-140z" />
    <glyph glyph-name="underscore" unicode="_" horiz-adv-x="503" 
d="M-74 -124v124h511v-124h-511z" />
    <glyph glyph-name="grave" unicode="`" horiz-adv-x="281" 
d="M124 556l-108 151h166l59 -151h-117z" />
    <glyph glyph-name="a" unicode="a" 
d="M271 371c-75 0 -115 -77 -115 -149c0 -64 37 -99 87 -99c55 0 113 50 113 153c0 62 -35 95 -85 95zM408 497h147l-85 -397c-6 -26 -9 -56 -9 -81c0 -3 0 -10 1 -19h-138c-1 6 -1 14 -1 18c0 14 1 28 3 41c-19 -30 -57 -67 -125 -67c-120 0 -195 97 -195 223
c0 173 111 294 251 294c95 0 131 -46 141 -65z" />
    <glyph glyph-name="b" unicode="b" horiz-adv-x="612" 
d="M142 0h-148l153 724h149l-55 -266c23 26 71 49 125 49c129 0 195 -93 195 -209c0 -182 -116 -310 -259 -310c-81 0 -132 44 -147 76zM315 373c-72 0 -122 -71 -122 -147c0 -67 42 -102 93 -102c54 0 121 49 122 151c0 68 -41 98 -93 98z" />
    <glyph glyph-name="c" unicode="c" horiz-adv-x="534" 
d="M509 340l-137 -38c-7 36 -35 70 -93 70s-124 -49 -124 -148c0 -63 41 -99 99 -99c49 0 82 29 99 63l124 -47c-33 -80 -113 -156 -234 -156c-134 0 -238 96 -238 236c0 179 137 291 285 291c135 0 205 -86 219 -172z" />
    <glyph glyph-name="d" unicode="d" horiz-adv-x="590" 
d="M602 724l-132 -624c-5 -21 -9 -51 -9 -77c0 -8 0 -17 1 -23h-138c-1 6 -1 12 -1 22c0 15 2 27 3 37c-19 -30 -57 -67 -125 -67c-120 0 -195 97 -195 223c0 173 111 294 251 294c84 0 121 -37 135 -58l58 273h152zM271 371c-75 0 -115 -77 -115 -149c0 -64 37 -99 87 -99
c55 0 113 50 113 153c0 62 -35 95 -85 95z" />
    <glyph glyph-name="e" unicode="e" horiz-adv-x="544" 
d="M159 308h195v7c0 32 -21 76 -85 76c-60 0 -94 -34 -110 -83zM480 210l-335 -1c0 -53 34 -99 104 -99c43 0 77 24 93 56l118 -53c-32 -65 -102 -128 -224 -128c-125 0 -230 94 -230 231c0 183 132 296 264 296c140 0 224 -90 224 -213c0 -23 -4 -59 -14 -89z" />
    <glyph glyph-name="f" unicode="f" horiz-adv-x="378" 
d="M354 369h-102l-77 -369h-153l79 369h-84l27 128h84l16 71c26 115 102 165 203 165c30 0 69 -8 89 -19l-26 -124c0 -1 -15 9 -47 9c-41 0 -66 -24 -75 -64l-9 -38h103z" />
    <glyph glyph-name="g" unicode="g" 
d="M359 285c0 54 -37 88 -85 88c-66 0 -114 -53 -114 -127c0 -55 36 -89 89 -89c56 0 110 49 110 128zM-52 -13l133 26c0 -48 34 -87 100 -87c64 0 112 41 130 118l7 31c-17 -21 -55 -45 -109 -45c-123 0 -201 87 -201 205c0 152 106 273 249 273c83 0 129 -35 145 -63
l10 52h147l-96 -455c-29 -139 -124 -247 -280 -247c-165 0 -235 103 -235 192z" />
    <glyph glyph-name="h" unicode="h" horiz-adv-x="593" 
d="M457 0h-152l57 264c5 22 6 33 6 42c0 41 -25 69 -70 69c-47 0 -77 -37 -88 -87l-62 -288h-152l153 724h153l-57 -267c31 37 80 53 125 53c104 0 156 -70 156 -160c0 -18 -2 -38 -8 -65z" />
    <glyph glyph-name="i" unicode="i" horiz-adv-x="287" 
d="M115 642c0 54 43 96 98 96c47 0 79 -33 79 -77c0 -58 -47 -96 -98 -96c-46 0 -79 33 -79 77zM143 0h-152l106 497h152z" />
    <glyph glyph-name="j" unicode="j" horiz-adv-x="285" 
d="M-9 -20l111 517h151l-117 -551c-21 -101 -88 -151 -176 -151c-49 0 -86 17 -99 27l25 118c0 1 19 -11 49 -11c29 0 50 15 56 51zM120 642c0 54 42 96 97 96c48 0 80 -33 80 -77c0 -58 -47 -96 -98 -96c-46 0 -79 33 -79 77z" />
    <glyph glyph-name="k" unicode="k" horiz-adv-x="577" 
d="M322 0l-82 184l-65 -57l-27 -127h-152l153 724h153l-82 -383l174 156h207l-248 -215l138 -282h-169z" />
    <glyph glyph-name="l" unicode="l" horiz-adv-x="286" 
d="M143 0h-152l154 724h152z" />
    <glyph glyph-name="m" unicode="m" horiz-adv-x="896" 
d="M455 0h-152l59 274c3 13 4 24 4 31c0 40 -23 70 -69 70s-76 -35 -87 -86l-62 -289h-152l87 414c8 40 9 67 9 83h148c0 -21 0 -35 -2 -47c30 41 84 60 131 60c66 0 111 -29 135 -72c51 64 123 72 164 72c99 0 161 -71 161 -165c0 -16 -2 -32 -5 -49l-63 -296h-151l58 273
c3 12 4 25 4 32c0 40 -23 70 -68 70c-48 0 -76 -36 -87 -86z" />
    <glyph glyph-name="n" unicode="n" horiz-adv-x="593" 
d="M457 0h-152l56 263c5 21 6 35 6 43c0 41 -22 69 -69 69s-77 -37 -88 -87l-62 -288h-152l87 414c8 38 9 61 9 83h148c0 -6 0 -29 -3 -47c31 42 86 60 133 60c104 0 156 -70 156 -160c0 -18 -2 -36 -6 -55z" />
    <glyph glyph-name="o" unicode="o" horiz-adv-x="568" 
d="M276 373c-73 0 -120 -72 -120 -148c0 -64 39 -101 91 -101s120 46 120 149c0 66 -37 99 -91 100zM518 280c0 -158 -115 -295 -281 -295c-138 0 -231 101 -231 233c0 177 130 294 281 294c141 0 231 -101 231 -232z" />
    <glyph glyph-name="p" unicode="p" horiz-adv-x="608" 
d="M312 375c-72 0 -121 -73 -121 -149c0 -68 41 -102 92 -102c54 0 121 49 121 151c0 66 -40 100 -92 100zM232 449c25 31 75 58 131 58c129 0 195 -90 195 -209c0 -182 -117 -310 -260 -310c-76 0 -126 33 -146 64l-50 -242h-152l128 604c8 40 9 67 9 83h148
c0 -18 0 -39 -3 -48z" />
    <glyph glyph-name="q" unicode="q" horiz-adv-x="590" 
d="M555 497l-147 -688h-152l47 222c-23 -23 -57 -39 -105 -39c-118 1 -193 99 -193 223c0 173 112 293 251 293c95 0 132 -44 142 -63l10 52h147zM270 371c-74 0 -114 -77 -114 -149c0 -64 37 -99 88 -99c55 0 112 50 112 152c0 63 -35 96 -86 96z" />
    <glyph glyph-name="r" unicode="r" horiz-adv-x="417" 
d="M381 344c-20 6 -33 9 -60 9c-51 0 -103 -29 -124 -126l-49 -227h-152l88 414c8 40 9 67 9 83h148c0 -2 0 -32 -4 -54c32 44 77 58 124 58c23 0 43 -5 52 -9z" />
    <glyph glyph-name="s" unicode="s" horiz-adv-x="446" 
d="M-18 150l128 21c-1 -5 -1 -8 -1 -9c0 -42 26 -66 65 -66c36 0 53 19 53 41c0 15 -5 31 -34 43l-48 20c-84 35 -113 86 -113 145c0 90 79 167 194 167c156 0 188 -99 189 -156l-130 -15c0 26 -8 63 -60 63c-29 0 -51 -18 -51 -43c0 -17 11 -30 27 -36l62 -25
c84 -34 113 -88 113 -149c0 -81 -69 -166 -197 -166c-166 0 -197 112 -197 159v6z" />
    <glyph glyph-name="t" unicode="t" horiz-adv-x="393" 
d="M250 364l-39 -182c-1 -6 -2 -12 -2 -17c0 -31 21 -43 51 -43c12 0 25 2 37 5l-26 -120c-6 -3 -30 -14 -69 -14c-93 0 -149 53 -149 134c0 14 2 28 5 43l40 194h-86l28 133h24c56 0 82 30 94 81l15 64h136l-31 -145h96l-29 -133h-95z" />
    <glyph glyph-name="u" unicode="u" horiz-adv-x="578" 
d="M85 497h152l-60 -281c-2 -10 -3 -19 -3 -28c0 -40 23 -66 68 -66c47 0 75 37 86 87l62 288h152l-86 -410c-4 -18 -9 -47 -9 -87h-147c-1 6 -1 14 -1 17c0 10 1 21 2 31c-23 -39 -74 -61 -120 -61c-107 0 -164 73 -164 165c0 17 2 35 6 53z" />
    <glyph glyph-name="v" unicode="v" horiz-adv-x="531" 
d="M555 497l-286 -497h-152l-88 497h157l38 -310l162 310h169z" />
    <glyph glyph-name="w" unicode="w" horiz-adv-x="822" 
d="M354 497h162l34 -293l136 293h155l-251 -497h-150l-39 321l-164 -321h-156l-47 497h149l21 -292z" />
    <glyph glyph-name="x" unicode="x" horiz-adv-x="527" 
d="M218 135l-117 -135h-180l233 255l-130 242h167l64 -131l112 131h183l-231 -252l131 -245h-166z" />
    <glyph glyph-name="y" unicode="y" horiz-adv-x="534" 
d="M125 -190h-167l165 266l-103 421h159l56 -265l155 265h168z" />
    <glyph glyph-name="z" unicode="z" horiz-adv-x="500" 
d="M382 0h-417l28 134l263 234h-206l28 129h407l-27 -125l-274 -242h226z" />
    <glyph glyph-name="braceleft" unicode="{" horiz-adv-x="377" 
d="M17 269l26 124c57 0 103 24 117 88l31 145c32 149 110 197 231 197h50l-24 -114h-37c-43 0 -81 -17 -94 -81l-36 -170c-14 -64 -55 -116 -126 -129c48 -16 73 -53 73 -101c0 -11 -2 -22 -4 -33l-33 -158c-2 -9 -3 -18 -3 -25c0 -46 32 -61 68 -61h31l-24 -113h-36
c-100 0 -165 56 -165 155c0 18 2 37 6 57l28 130c2 9 3 18 3 25c0 46 -34 64 -82 64z" />
    <glyph glyph-name="bar" unicode="|" horiz-adv-x="290" 
d="M95 -162h-126l209 985h126z" />
    <glyph glyph-name="braceright" unicode="}" horiz-adv-x="380" 
d="M351 392l-26 -124c-55 0 -103 -24 -116 -88l-31 -146c-30 -142 -117 -196 -237 -196h-45l24 113h38c41 0 80 19 94 83l36 169c14 64 55 115 126 129c-48 15 -73 53 -73 100c0 10 2 21 4 32l33 160c2 9 3 18 3 26c0 45 -31 59 -67 59h-32l24 114h37c99 0 164 -55 164 -154
c0 -17 -2 -37 -6 -57l-29 -132c-2 -9 -3 -17 -3 -24c0 -46 34 -64 82 -64z" />
    <glyph glyph-name="asciitilde" unicode="~" horiz-adv-x="659" 
d="M507 375l80 -65c-36 -70 -99 -110 -170 -110c-35 0 -75 9 -112 30l-47 26c-17 9 -34 13 -50 13c-32 0 -62 -18 -84 -50l-82 65c36 69 99 110 169 110c36 0 74 -9 112 -29l48 -26c17 -9 35 -14 52 -14c32 0 63 19 84 50z" />
    <glyph glyph-name="uni00A0" unicode="&#xa0;" horiz-adv-x="261" 
 />
    <glyph glyph-name="exclamdown" unicode="&#xa1;" horiz-adv-x="256" 
d="M174 281l-68 -487h-183l139 487h112zM229 435c0 -52 -43 -95 -95 -95c-48 0 -77 36 -77 77c0 53 46 95 93 95s79 -34 79 -77z" />
    <glyph glyph-name="cent" unicode="&#xa2;" horiz-adv-x="552" 
d="M143 0l19 91c-83 31 -135 107 -135 202c0 151 108 252 234 268l19 88h115l-21 -97c79 -25 122 -87 132 -148l-130 -35c-5 33 -33 65 -88 65s-118 -46 -118 -137c0 -59 39 -92 93 -92c48 0 79 25 95 57l119 -42c-30 -71 -99 -137 -203 -145l-16 -75h-115z" />
    <glyph glyph-name="sterling" unicode="&#xa3;" horiz-adv-x="596" 
d="M46 273l23 110h65c-3 17 -5 34 -5 54c0 118 78 225 229 225c150 0 199 -92 199 -174c0 -14 -2 -25 -2 -26l-134 -13c0 1 1 9 1 18c0 40 -20 71 -69 71c-43 0 -85 -28 -85 -105c0 -16 3 -33 6 -50h169l-24 -110h-134c-5 -61 -36 -120 -93 -143h137c53 0 79 34 85 75
l127 -22c-16 -107 -95 -183 -205 -183h-350l28 127c78 12 124 78 132 146h-100z" />
    <glyph glyph-name="currency" unicode="&#xa4;" horiz-adv-x="634" 
d="M76 248c0 37 9 71 26 101l-71 72l90 90l74 -74c30 14 63 23 99 23c35 0 69 -8 98 -23l74 74l91 -90l-71 -72c16 -30 26 -64 26 -101c0 -38 -9 -72 -26 -102l71 -70l-91 -91l-73 73c-30 -14 -64 -22 -99 -22c-36 0 -69 8 -99 23l-74 -74l-90 91l70 70
c-16 30 -25 64 -25 102zM201 248c0 -53 38 -91 93 -91s93 38 93 91s-38 91 -93 91s-93 -38 -93 -91z" />
    <glyph glyph-name="yen" unicode="&#xa5;" horiz-adv-x="637" 
d="M57 294l22 106h101l-92 249h161l78 -236l176 236h169l-200 -249h110l-22 -106h-184l-13 -63h184l-23 -106h-183l-26 -125h-147l26 125h-174l23 106h173l14 63h-173z" />
    <glyph glyph-name="brokenbar" unicode="&#xa6;" horiz-adv-x="290" 
d="M220 425h-127l85 398h126zM95 -163h-126l85 398h126z" />
    <glyph glyph-name="section" unicode="&#xa7;" horiz-adv-x="575" 
d="M-10 3l147 9c-2 -13 -2 -17 -2 -23c0 -44 27 -66 71 -66c35 0 66 26 66 62c0 18 -10 36 -29 49l-87 60c-59 41 -108 87 -108 159c0 81 51 125 103 147c-31 34 -44 76 -44 116c0 129 123 208 233 208c132 0 205 -78 205 -176c0 -13 -1 -25 -2 -33l-146 -9c1 10 2 15 2 25
c0 44 -32 64 -71 64c-35 0 -66 -27 -66 -62c0 -18 10 -36 26 -47l90 -61c59 -40 108 -88 108 -159c0 -83 -51 -127 -103 -148c30 -34 43 -77 43 -116c0 -129 -122 -208 -232 -208c-132 0 -206 78 -206 176c0 10 0 17 2 33zM319 277l-92 64c-22 -14 -35 -33 -35 -58
c0 -16 7 -31 23 -42l92 -64c22 13 34 33 34 59c0 15 -6 30 -22 41z" />
    <glyph glyph-name="dieresis" unicode="&#xa8;" horiz-adv-x="391" 
d="M1 624c0 43 39 85 86 85c41 0 69 -32 69 -70c0 -48 -43 -83 -86 -83c-40 0 -69 31 -69 68zM219 624c0 43 39 85 85 85c41 0 70 -32 70 -70c0 -48 -43 -83 -86 -83c-41 0 -69 31 -69 68z" />
    <glyph glyph-name="copyright" unicode="&#xa9;" horiz-adv-x="804" 
d="M27 354c0 204 165 371 370 371c204 0 370 -167 370 -371s-166 -370 -370 -370c-205 0 -370 166 -370 370zM115 354c0 -161 123 -288 282 -288c158 0 281 127 281 288s-123 289 -281 289c-159 0 -282 -128 -282 -289zM578 420l-100 -27c-5 25 -26 51 -68 51
s-91 -36 -91 -109c0 -46 30 -73 72 -73c37 0 60 21 74 46l90 -34c-24 -58 -83 -114 -171 -114c-102 0 -174 72 -174 173c0 131 100 212 207 212c99 0 150 -62 161 -125z" />
    <glyph glyph-name="ordfeminine" unicode="&#xaa;" horiz-adv-x="451" 
d="M230 549c-46 0 -71 -47 -71 -92c0 -43 26 -63 56 -63c31 0 69 27 69 94c0 43 -24 61 -54 61zM322 649h114l-59 -274c-6 -27 -9 -53 -9 -77h-105c0 12 0 24 2 41c-10 -19 -35 -46 -84 -46c-83 0 -138 68 -138 158c0 124 80 206 176 206c69 0 91 -34 95 -43z" />
    <glyph glyph-name="guillemotleft" unicode="&#xab;" horiz-adv-x="542" 
d="M237 102h-135l-100 199l179 196h147l-189 -204zM470 102h-135l-100 199l179 196h147l-189 -204z" />
    <glyph glyph-name="logicalnot" unicode="&#xac;" horiz-adv-x="631" 
d="M549 129h-130v195h-372v125h502v-320z" />
    <glyph glyph-name="uni00AD" unicode="&#xad;" horiz-adv-x="368" 
d="M306 233h-299l29 137h300z" />
    <glyph glyph-name="registered" unicode="&#xae;" horiz-adv-x="804" 
d="M27 354c0 204 165 371 370 371c204 0 370 -167 370 -371s-166 -370 -370 -370c-205 0 -370 166 -370 370zM115 354c0 -161 123 -288 282 -288c158 0 281 127 281 288s-123 289 -281 289c-159 0 -282 -128 -282 -289zM424 157l-35 130l-26 1l-28 -134h-104l85 399h152
c71 0 120 -52 120 -115c0 -64 -40 -118 -101 -138l46 -143h-109zM382 372h37c34 0 64 23 64 59c0 24 -16 38 -43 38h-38z" />
    <glyph glyph-name="macron" unicode="&#xaf;" horiz-adv-x="303" 
d="M275 577h-285l22 105h286z" />
    <glyph glyph-name="degree" unicode="&#xb0;" horiz-adv-x="386" 
d="M200 433c32 0 67 26 67 75c0 31 -19 55 -51 55c-33 0 -67 -27 -67 -75c0 -32 19 -54 51 -55zM192 332c-88 0 -150 66 -150 150c0 108 89 182 182 182c87 0 150 -67 150 -150c0 -109 -91 -182 -182 -182z" />
    <glyph glyph-name="plusminus" unicode="&#xb1;" horiz-adv-x="625" 
d="M371 314v-116h-128v116h-178v124h178v117h128v-117h178v-124h-178zM65 40v124h484v-124h-484z" />
    <glyph glyph-name="twosuperior" unicode="&#xb2;" horiz-adv-x="385" 
d="M166 521l66 28c27 11 42 25 42 45c0 14 -9 34 -36 34c-33 0 -48 -24 -48 -56l-99 8c0 74 59 138 152 138c96 0 144 -52 144 -114c0 -61 -41 -103 -111 -132l-76 -32c-3 -1 -5 -4 -6 -5h151l-21 -95h-284c0 83 45 146 126 181z" />
    <glyph glyph-name="threesuperior" unicode="&#xb3;" horiz-adv-x="430" 
d="M197 499l-27 70l105 49h-167l19 91h291l-22 -105l-96 -46c45 -10 76 -44 76 -92c0 -72 -65 -134 -163 -134s-151 62 -151 125c0 4 1 10 1 14l104 6c-1 -4 -1 -7 -1 -8c0 -26 18 -45 49 -45c30 0 48 19 48 43s-20 36 -43 36c-11 0 -20 -3 -23 -4z" />
    <glyph glyph-name="acute" unicode="&#xb4;" horiz-adv-x="279" 
d="M286 707l-174 -151h-129l122 151h181z" />
    <glyph glyph-name="mu" unicode="&#xb5;" horiz-adv-x="610" 
d="M47 -190v687h153v-282c0 -48 26 -86 80 -86c51 0 82 35 82 85v283h153v-408c0 -38 3 -69 5 -89h-146c-2 9 -4 32 -4 50c-26 -43 -83 -61 -133 -61c-13 0 -26 1 -37 3v-182h-153z" />
    <glyph glyph-name="paragraph" unicode="&#xb6;" horiz-adv-x="690" 
d="M413 597l-167 -788h-116l103 482h-9c-101 0 -177 76 -177 175c0 162 149 243 289 243h412l-24 -112h-97l-167 -788h-117l167 788h-97z" />
    <glyph glyph-name="periodcentered" unicode="&#xb7;" horiz-adv-x="289" 
d="M42 313c0 52 44 100 102 100c49 0 84 -37 84 -80c0 -60 -47 -104 -102 -104c-50 0 -84 38 -84 84z" />
    <glyph glyph-name="cedilla" unicode="&#xb8;" horiz-adv-x="272" 
d="M126 12h96l-64 -65c48 -5 80 -39 80 -79c0 -45 -37 -103 -130 -103c-81 0 -127 52 -135 67l56 51c10 -13 34 -42 75 -42c22 0 38 9 38 26c0 19 -18 26 -36 26c-9 0 -15 -1 -21 -1l-24 52z" />
    <glyph glyph-name="onesuperior" unicode="&#xb9;" horiz-adv-x="312" 
d="M214 341h-115l46 217h-93l15 73c66 2 111 43 125 78h100z" />
    <glyph glyph-name="ordmasculine" unicode="&#xba;" horiz-adv-x="416" 
d="M235 552c-50 0 -76 -50 -76 -93c0 -41 25 -63 57 -63c31 0 76 27 76 93c0 43 -24 62 -57 63zM408 495c0 -110 -81 -207 -200 -207c-97 0 -165 71 -165 165c0 127 94 207 201 207c98 0 164 -71 164 -165z" />
    <glyph glyph-name="guillemotright" unicode="&#xbb;" horiz-adv-x="531" 
d="M43 497h133l102 -199l-179 -196h-148l189 204zM274 497h133l102 -199l-179 -196h-148l189 204z" />
    <glyph glyph-name="onequarter" unicode="&#xbc;" horiz-adv-x="820" 
d="M199 281h-115l46 217h-93l15 73c66 2 111 43 125 78h100zM390 71l24 114l201 184h121l-44 -212h60l-19 -86h-59l-15 -71h-113l15 71h-171zM579 157l21 97l-106 -97h85zM731 649l-587 -649h-134l587 649h134z" />
    <glyph glyph-name="onehalf" unicode="&#xbd;" horiz-adv-x="854" 
d="M200 281h-115l46 217h-93l15 73c66 2 111 43 125 78h100zM731 649l-587 -649h-134l587 649h134zM566 181l66 28c27 11 42 25 42 45c0 14 -9 34 -36 34c-33 0 -48 -24 -48 -56l-99 8c0 74 59 138 152 138c96 0 144 -52 144 -114c0 -61 -41 -103 -111 -132l-76 -32
c-3 -1 -5 -4 -6 -5h151l-21 -95h-284c0 83 45 146 126 181z" />
    <glyph glyph-name="threequarters" unicode="&#xbe;" horiz-adv-x="934" 
d="M177 439l-27 70l105 49h-167l19 91h291l-22 -105l-96 -46c45 -10 76 -44 76 -92c0 -72 -65 -134 -163 -134s-151 62 -151 125c0 4 1 10 1 14l104 6c-1 -4 -1 -7 -1 -8c0 -26 18 -45 49 -45c30 0 48 19 48 43s-20 36 -43 36c-11 0 -20 -3 -23 -4zM503 71l24 114l201 184
h121l-44 -212h60l-19 -86h-59l-15 -71h-113l15 71h-171zM692 157l21 97l-106 -97h85zM844 649l-587 -649h-134l587 649h134z" />
    <glyph glyph-name="questiondown" unicode="&#xbf;" horiz-adv-x="442" 
d="M169 283h116c-1 -58 -8 -136 -103 -188l-58 -32c-35 -20 -51 -52 -51 -82c0 -33 23 -68 79 -68c66 0 100 55 100 115l138 -14c-1 -130 -100 -235 -247 -235c-154 0 -226 93 -226 181c0 99 56 163 136 209l43 25c46 26 67 45 73 89zM327 435c0 -52 -44 -95 -95 -95
c-48 0 -78 36 -78 77c0 53 46 95 94 95c47 0 79 -34 79 -77z" />
    <glyph glyph-name="Agrave" unicode="&#xc0;" horiz-adv-x="693" 
d="M463 0l-19 144h-263l-79 -144h-177l412 709h183l107 -709h-164zM394 532l-133 -244h164zM366 759l-120 132h174l76 -132h-130z" />
    <glyph glyph-name="Aacute" unicode="&#xc1;" horiz-adv-x="693" 
d="M463 0l-19 144h-263l-79 -144h-177l412 709h183l107 -709h-164zM394 532l-133 -244h164zM683 891l-177 -132h-143l132 132h188z" />
    <glyph glyph-name="Acircumflex" unicode="&#xc2;" horiz-adv-x="693" 
d="M463 0l-19 144h-263l-79 -144h-177l412 709h183l107 -709h-164zM394 532l-133 -244h164zM371 759h-139l150 132h146l95 -132h-135l-44 65z" />
    <glyph glyph-name="Atilde" unicode="&#xc3;" horiz-adv-x="693" 
d="M463 0l-19 144h-263l-79 -144h-177l412 709h183l107 -709h-164zM394 532l-133 -244h164zM629 895c-14 -104 -66 -144 -128 -144c-30 0 -54 12 -76 25c-19 12 -36 23 -51 23c-17 0 -31 -13 -35 -42h-93c11 105 72 140 133 140c32 0 54 -11 74 -23c18 -11 32 -23 47 -23
c18 0 31 13 36 44h93z" />
    <glyph glyph-name="Adieresis" unicode="&#xc4;" horiz-adv-x="693" 
d="M193 817c0 42 38 87 87 87c43 0 72 -33 72 -71c0 -50 -42 -86 -86 -86s-73 30 -73 70zM526 817c0 42 38 87 88 87c42 0 71 -33 71 -71c0 -50 -41 -86 -86 -86c-44 0 -73 30 -73 70zM463 0l-19 144h-263l-79 -144h-177l412 709h183l107 -709h-164zM394 532l-133 -244h164z
" />
    <glyph glyph-name="Aring" unicode="&#xc5;" horiz-adv-x="693" 
d="M394 533l-133 -245h164zM436 804c-28 0 -53 -22 -53 -53c0 -25 19 -42 45 -42s54 21 54 54c0 26 -20 41 -46 41zM290 745c0 80 71 149 154 149c73 0 132 -52 132 -123c0 -45 -20 -83 -49 -109l100 -662h-164l-19 144h-263l-79 -144h-177l389 670c-15 20 -24 46 -24 75z
" />
    <glyph glyph-name="AE" unicode="&#xc6;" horiz-adv-x="1075" 
d="M684 150h292l-32 -150h-450l32 152h-271l-129 -152h-201l618 709h551l-31 -149h-291l-29 -135h263l-29 -143h-263zM366 282h188l63 295z" />
    <glyph glyph-name="Ccedilla" unicode="&#xc7;" horiz-adv-x="718" 
d="M415 723l4 1c202 0 286 -132 302 -230l-155 -48c-10 52 -49 126 -158 126c-103 0 -215 -89 -215 -255c0 -101 64 -178 170 -178c102 0 147 72 168 119l141 -57c-32 -86 -118 -201 -288 -215l-38 -39c48 -5 80 -39 80 -79c0 -45 -37 -103 -130 -103c-81 0 -127 52 -135 67
l56 51c10 -13 34 -42 75 -42c22 0 38 9 38 26c0 19 -18 26 -36 26c-5 0 -10 0 -21 -1l-24 52l43 44c-158 24 -261 153 -261 320c0 261 189 415 384 415z" />
    <glyph glyph-name="Egrave" unicode="&#xc8;" horiz-adv-x="581" 
d="M339 759l-120 132h174l76 -132h-130zM451 0h-449l150 709h449l-32 -149h-291l-29 -135h264l-29 -139h-264l-29 -136h292z" />
    <glyph glyph-name="Eacute" unicode="&#xc9;" horiz-adv-x="581" 
d="M614 891l-177 -132h-143l132 132h188zM451 0h-449l150 709h449l-32 -149h-291l-29 -135h264l-29 -139h-264l-29 -136h292z" />
    <glyph glyph-name="Ecircumflex" unicode="&#xca;" horiz-adv-x="581" 
d="M325 759h-139l150 132h146l95 -132h-135l-44 65zM451 0h-449l150 709h449l-32 -149h-291l-29 -135h264l-29 -139h-264l-29 -136h292z" />
    <glyph glyph-name="Edieresis" unicode="&#xcb;" horiz-adv-x="581" 
d="M211 817c0 43 39 85 86 85c42 0 70 -31 70 -69c0 -50 -40 -85 -85 -85c-42 0 -71 29 -71 69zM419 817c0 43 39 85 85 85c42 0 70 -31 70 -69c0 -50 -40 -85 -84 -85c-43 0 -71 29 -71 69zM451 0h-449l150 709h449l-32 -149h-291l-29 -135h264l-29 -139h-264l-29 -136h292
z" />
    <glyph glyph-name="Igrave" unicode="&#xcc;" horiz-adv-x="313" 
d="M161 0h-159l150 709h160zM179 759l-120 132h174l76 -132h-130z" />
    <glyph glyph-name="Iacute" unicode="&#xcd;" horiz-adv-x="313" 
d="M161 0h-159l150 709h160zM485 891l-177 -132h-143l132 132h188z" />
    <glyph glyph-name="Icircumflex" unicode="&#xce;" horiz-adv-x="313" 
d="M161 0h-159l150 709h160zM182 759h-139l150 132h146l95 -132h-135l-44 65z" />
    <glyph glyph-name="Idieresis" unicode="&#xcf;" horiz-adv-x="313" 
d="M161 0h-159l150 709h160zM71 817c0 43 38 85 85 85c41 0 69 -31 69 -69c0 -49 -39 -84 -84 -84c-42 0 -70 28 -70 68zM271 817c0 43 38 85 85 85c41 0 69 -31 69 -69c0 -49 -39 -84 -84 -84c-42 0 -70 28 -70 68z" />
    <glyph glyph-name="Eth" unicode="&#xd0;" horiz-adv-x="745" 
d="M6 309l23 112h93l60 288h219c198 0 313 -122 313 -299c0 -264 -183 -410 -380 -410h-300l64 309h-92zM221 152h120c136 0 211 129 211 247c0 94 -48 162 -160 162h-85l-30 -140h150l-23 -112h-150z" />
    <glyph glyph-name="Ntilde" unicode="&#xd1;" horiz-adv-x="753" 
d="M664 895c-14 -104 -66 -144 -128 -144c-30 0 -54 12 -76 25c-19 12 -36 23 -51 23c-17 0 -31 -13 -35 -42h-93c11 105 72 140 133 140c32 0 54 -11 74 -23c18 -11 32 -23 47 -23c18 0 31 13 36 44h93zM601 0h-156l-188 465l-99 -465h-156l150 709h180l170 -432l92 432
h158z" />
    <glyph glyph-name="Ograve" unicode="&#xd2;" horiz-adv-x="760" 
d="M384 759l-120 132h174l76 -132h-130zM31 307c0 261 185 417 382 417c192 0 317 -130 317 -321c0 -261 -186 -418 -383 -418c-189 0 -316 131 -316 322zM568 397c0 104 -58 175 -163 175c-103 0 -212 -90 -212 -256c0 -106 60 -177 162 -177c103 0 213 92 213 258z" />
    <glyph glyph-name="Oacute" unicode="&#xd3;" horiz-adv-x="760" 
d="M679 891l-177 -132h-143l132 132h188zM31 307c0 261 185 417 382 417c192 0 317 -130 317 -321c0 -261 -186 -418 -383 -418c-189 0 -316 131 -316 322zM568 397c0 104 -58 175 -163 175c-103 0 -212 -90 -212 -256c0 -106 60 -177 162 -177c103 0 213 92 213 258z" />
    <glyph glyph-name="Ocircumflex" unicode="&#xd4;" horiz-adv-x="760" 
d="M387 759h-139l150 132h146l95 -132h-135l-44 65zM31 307c0 261 185 417 382 417c192 0 317 -130 317 -321c0 -261 -186 -418 -383 -418c-189 0 -316 131 -316 322zM568 397c0 104 -58 175 -163 175c-103 0 -212 -90 -212 -256c0 -106 60 -177 162 -177
c103 0 213 92 213 258z" />
    <glyph glyph-name="Otilde" unicode="&#xd5;" horiz-adv-x="760" 
d="M655 895c-14 -104 -66 -144 -128 -144c-30 0 -54 12 -76 25c-19 12 -36 23 -51 23c-17 0 -31 -13 -35 -42h-93c11 105 72 140 133 140c32 0 54 -11 74 -23c18 -11 32 -23 47 -23c18 0 31 13 36 44h93zM31 307c0 261 185 417 382 417c192 0 317 -130 317 -321
c0 -261 -186 -418 -383 -418c-189 0 -316 131 -316 322zM568 397c0 104 -58 175 -163 175c-103 0 -212 -90 -212 -256c0 -106 60 -177 162 -177c103 0 213 92 213 258z" />
    <glyph glyph-name="Odieresis" unicode="&#xd6;" horiz-adv-x="760" 
d="M202 817c0 42 38 87 87 87c43 0 72 -33 72 -71c0 -50 -42 -86 -86 -86s-73 30 -73 70zM532 817c0 42 38 87 88 87c42 0 71 -33 71 -71c0 -50 -41 -86 -86 -86c-44 0 -73 30 -73 70zM31 307c0 261 185 417 382 417c192 0 317 -130 317 -321c0 -261 -186 -418 -383 -418
c-189 0 -316 131 -316 322zM568 397c0 104 -58 175 -163 175c-103 0 -212 -90 -212 -256c0 -106 60 -177 162 -177c103 0 213 92 213 258z" />
    <glyph glyph-name="multiply" unicode="&#xd7;" horiz-adv-x="590" 
d="M131 43l-90 92l163 164l-163 165l90 90l164 -165l164 165l90 -90l-164 -165l164 -164l-90 -92l-164 165z" />
    <glyph glyph-name="Oslash" unicode="&#xd8;" horiz-adv-x="760" 
d="M31 307c0 261 185 417 382 417c64 0 121 -15 168 -41l74 89l92 -77l-77 -92c38 -53 60 -122 60 -200c0 -261 -186 -418 -383 -418c-62 0 -117 14 -163 39l-72 -86l-93 76l75 89c-40 54 -63 123 -63 204zM193 316c0 -30 4 -56 13 -79l270 322c-20 8 -44 13 -71 13
c-103 0 -212 -90 -212 -256zM568 397c0 26 -4 50 -11 71l-267 -318c19 -7 41 -11 65 -11c103 0 209 92 213 258z" />
    <glyph glyph-name="Ugrave" unicode="&#xd9;" horiz-adv-x="680" 
d="M374 759l-120 132h174l76 -132h-130zM529 709h160l-102 -481c-35 -162 -150 -243 -288 -243c-154 0 -256 94 -256 234c0 32 5 56 12 91l83 399h160l-86 -407c-5 -24 -8 -47 -8 -60c0 -59 31 -101 109 -101c62 0 106 38 122 116z" />
    <glyph glyph-name="Uacute" unicode="&#xda;" horiz-adv-x="680" 
d="M648 891l-177 -132h-143l132 132h188zM529 709h160l-102 -481c-35 -162 -150 -243 -288 -243c-154 0 -256 94 -256 234c0 32 5 56 12 91l83 399h160l-86 -407c-5 -24 -8 -47 -8 -60c0 -59 31 -101 109 -101c62 0 106 38 122 116z" />
    <glyph glyph-name="Ucircumflex" unicode="&#xdb;" horiz-adv-x="680" 
d="M361 759h-139l150 132h146l95 -132h-135l-44 65zM529 709h160l-102 -481c-35 -162 -150 -243 -288 -243c-154 0 -256 94 -256 234c0 32 5 56 12 91l83 399h160l-86 -407c-5 -24 -8 -47 -8 -60c0 -59 31 -101 109 -101c62 0 106 38 122 116z" />
    <glyph glyph-name="Udieresis" unicode="&#xdc;" horiz-adv-x="680" 
d="M232 817c0 42 38 87 87 87c43 0 72 -33 72 -71c0 -50 -42 -86 -86 -86s-73 30 -73 70zM465 817c0 42 38 87 88 87c42 0 71 -33 71 -71c0 -50 -41 -86 -86 -86c-44 0 -73 30 -73 70zM529 709h160l-102 -481c-35 -162 -150 -243 -288 -243c-154 0 -256 94 -256 234
c0 32 5 56 12 91l83 399h160l-86 -407c-5 -24 -8 -47 -8 -60c0 -59 31 -101 109 -101c62 0 106 38 122 116z" />
    <glyph glyph-name="Yacute" unicode="&#xdd;" horiz-adv-x="634" 
d="M227 296l-154 413h167l90 -262l182 262h190l-317 -414l-62 -295h-159zM607 891l-177 -132h-143l132 132h188z" />
    <glyph glyph-name="Thorn" unicode="&#xde;" horiz-adv-x="581" 
d="M322 449h-65l-39 -181h82c99 0 119 64 119 101c0 48 -27 80 -97 80zM161 0h-159l150 709h160l-27 -124h76c129 0 221 -82 221 -203c0 -155 -113 -249 -280 -249h-113z" />
    <glyph glyph-name="germandbls" unicode="&#xdf;" horiz-adv-x="613" 
d="M412 332c0 -11 5 -19 25 -30l24 -15c54 -32 84 -80 84 -136c0 -63 -52 -168 -190 -168c-119 0 -163 77 -163 141c0 8 1 16 2 22l120 8c-1 -4 -1 -7 -1 -11c0 -21 9 -47 46 -47c27 0 45 18 45 41c0 14 -9 29 -34 43l-25 14c-44 24 -85 63 -85 121c0 78 54 117 95 136l17 8
c41 21 58 40 58 72c0 25 -23 60 -85 60c-44 0 -91 -24 -108 -107l-100 -484h-150l107 512c32 152 144 212 258 212c147 0 227 -88 227 -177c0 -101 -62 -148 -121 -177l-16 -8c-18 -8 -30 -17 -30 -30z" />
    <glyph glyph-name="agrave" unicode="&#xe0;" 
d="M271 371c-75 0 -115 -77 -115 -149c0 -64 37 -99 87 -99c55 0 113 50 113 153c0 62 -35 95 -85 95zM408 497h147l-85 -397c-6 -26 -9 -56 -9 -81c0 -3 0 -10 1 -19h-138c-1 6 -1 14 -1 18c0 14 1 28 3 41c-19 -30 -57 -67 -125 -67c-120 0 -195 97 -195 223
c0 173 111 294 251 294c95 0 131 -46 141 -65zM245 556l-108 151h166l59 -151h-117z" />
    <glyph glyph-name="aacute" unicode="&#xe1;" 
d="M271 371c-75 0 -115 -77 -115 -149c0 -64 37 -99 87 -99c55 0 113 50 113 153c0 62 -35 95 -85 95zM408 497h147l-85 -397c-6 -26 -9 -56 -9 -81c0 -3 0 -10 1 -19h-138c-1 6 -1 14 -1 18c0 14 1 28 3 41c-19 -30 -57 -67 -125 -67c-120 0 -195 97 -195 223
c0 173 111 294 251 294c95 0 131 -46 141 -65zM529 707l-174 -151h-129l122 151h181z" />
    <glyph glyph-name="acircumflex" unicode="&#xe2;" 
d="M250 556h-124l150 151h141l84 -151h-114l-53 71zM271 371c-75 0 -115 -77 -115 -149c0 -64 37 -99 87 -99c55 0 113 50 113 153c0 62 -35 95 -85 95zM408 497h147l-85 -397c-6 -26 -9 -56 -9 -81c0 -3 0 -10 1 -19h-138c-1 6 -1 14 -1 18c0 14 1 28 3 41
c-19 -30 -57 -67 -125 -67c-120 0 -195 97 -195 223c0 173 111 294 251 294c95 0 131 -46 141 -65z" />
    <glyph glyph-name="atilde" unicode="&#xe3;" 
d="M271 371c-75 0 -115 -77 -115 -149c0 -64 37 -99 87 -99c55 0 113 50 113 153c0 62 -35 95 -85 95zM408 497h147l-85 -397c-6 -26 -9 -56 -9 -81c0 -3 0 -10 1 -19h-138c-1 6 -1 14 -1 18c0 14 1 28 3 41c-19 -30 -57 -67 -125 -67c-120 0 -195 97 -195 223
c0 173 111 294 251 294c95 0 131 -46 141 -65zM219 557h-94c12 110 76 150 140 150c34 0 56 -11 75 -23c17 -12 33 -22 50 -22c25 0 37 18 42 44h94c-15 -106 -73 -150 -135 -150c-32 0 -55 11 -76 23c-18 10 -34 21 -53 21c-21 0 -37 -13 -43 -43z" />
    <glyph glyph-name="adieresis" unicode="&#xe4;" 
d="M141 624c0 43 39 85 86 85c41 0 69 -32 69 -70c0 -48 -43 -83 -86 -83c-40 0 -69 31 -69 68zM359 624c0 43 39 85 85 85c41 0 70 -32 70 -70c0 -48 -43 -83 -86 -83c-41 0 -69 31 -69 68zM271 371c-75 0 -115 -77 -115 -149c0 -64 37 -99 87 -99c55 0 113 50 113 153
c0 62 -35 95 -85 95zM408 497h147l-85 -397c-6 -26 -9 -56 -9 -81c0 -3 0 -10 1 -19h-138c-1 6 -1 14 -1 18c0 14 1 28 3 41c-19 -30 -57 -67 -125 -67c-120 0 -195 97 -195 223c0 173 111 294 251 294c95 0 131 -46 141 -65z" />
    <glyph glyph-name="aring" unicode="&#xe5;" 
d="M271 371c-75 0 -115 -77 -115 -149c0 -64 37 -99 87 -99c55 0 113 50 113 153c0 62 -35 95 -85 95zM408 497h147l-85 -397c-6 -26 -9 -56 -9 -81c0 -3 0 -10 1 -19h-138c-1 6 -1 14 -1 18c0 14 1 28 3 41c-19 -30 -57 -67 -125 -67c-120 0 -195 97 -195 223
c0 173 111 294 251 294c95 0 131 -46 141 -65zM336 772c59 0 108 -39 108 -100c0 -73 -63 -122 -127 -122c-59 0 -106 42 -106 101c0 72 62 121 125 121zM288 656c0 -20 15 -34 36 -34c22 0 40 17 40 41c0 19 -13 34 -34 34c-20 0 -42 -16 -42 -41z" />
    <glyph glyph-name="ae" unicode="&#xe6;" horiz-adv-x="839" 
d="M282 299c31 1 43 18 43 41c0 26 -24 52 -76 52c-47 0 -77 -31 -86 -63l-125 40c19 64 92 143 219 143c79 0 129 -22 159 -53c42 34 95 53 148 53c141 0 224 -90 224 -213c0 -23 -3 -59 -14 -89h-332c0 -53 34 -100 103 -100c43 0 77 24 93 56l116 -53
c-31 -65 -102 -128 -223 -128c-73 0 -135 31 -176 84c-35 -43 -96 -81 -177 -81c-130 0 -191 73 -191 146c0 108 84 156 170 160zM136 144c0 -30 24 -48 57 -48c39 0 93 30 104 95l3 18l-98 -4c-34 -2 -66 -23 -66 -61zM563 391c-60 0 -93 -34 -108 -83h194v6
c0 32 -21 77 -86 77z" />
    <glyph glyph-name="ccedilla" unicode="&#xe7;" horiz-adv-x="534" 
d="M509 340l-137 -38c-7 36 -35 70 -93 70s-124 -49 -124 -148c0 -63 41 -100 99 -100c49 0 82 29 99 63l124 -47c-31 -75 -103 -146 -211 -155l-37 -38c48 -5 80 -39 80 -79c0 -45 -37 -103 -130 -103c-81 0 -127 52 -135 67l56 51c10 -13 34 -42 75 -42c22 0 38 9 38 26
c0 19 -18 26 -36 26c-5 0 -11 0 -21 -1l-24 52l46 48c-104 25 -173 114 -173 229c0 179 137 291 285 291c135 0 205 -86 219 -172z" />
    <glyph glyph-name="egrave" unicode="&#xe8;" horiz-adv-x="544" 
d="M159 308h195v7c0 32 -21 76 -85 76c-60 0 -94 -34 -110 -83zM480 210l-335 -1c0 -53 34 -99 104 -99c43 0 77 24 93 56l118 -53c-32 -65 -102 -128 -224 -128c-125 0 -230 94 -230 231c0 183 132 296 264 296c140 0 224 -90 224 -213c0 -23 -4 -59 -14 -89zM243 556
l-108 151h166l59 -151h-117z" />
    <glyph glyph-name="eacute" unicode="&#xe9;" horiz-adv-x="544" 
d="M528 707l-174 -151h-129l122 151h181zM159 308h195v7c0 32 -21 76 -85 76c-60 0 -94 -34 -110 -83zM480 210l-335 -1c0 -53 34 -99 104 -99c43 0 77 24 93 56l118 -53c-32 -65 -102 -128 -224 -128c-125 0 -230 94 -230 231c0 183 132 296 264 296
c140 0 224 -90 224 -213c0 -23 -4 -59 -14 -89z" />
    <glyph glyph-name="ecircumflex" unicode="&#xea;" horiz-adv-x="544" 
d="M230 556h-124l150 151h141l84 -151h-114l-53 71zM159 308h195v7c0 32 -21 76 -85 76c-60 0 -94 -34 -110 -83zM480 210l-335 -1c0 -53 34 -99 104 -99c43 0 77 24 93 56l118 -53c-32 -65 -102 -128 -224 -128c-125 0 -230 94 -230 231c0 183 132 296 264 296
c140 0 224 -90 224 -213c0 -23 -4 -59 -14 -89z" />
    <glyph glyph-name="edieresis" unicode="&#xeb;" horiz-adv-x="544" 
d="M123 624c0 43 39 85 86 85c41 0 69 -32 69 -70c0 -48 -43 -83 -86 -83c-40 0 -69 31 -69 68zM341 624c0 43 39 85 85 85c41 0 70 -32 70 -70c0 -48 -43 -83 -86 -83c-41 0 -69 31 -69 68zM159 308h195v7c0 32 -21 76 -85 76c-60 0 -94 -34 -110 -83zM480 210l-335 -1
c0 -53 34 -99 104 -99c43 0 77 24 93 56l118 -53c-32 -65 -102 -128 -224 -128c-125 0 -230 94 -230 231c0 183 132 296 264 296c140 0 224 -90 224 -213c0 -23 -4 -59 -14 -89z" />
    <glyph glyph-name="igrave" unicode="&#xec;" horiz-adv-x="287" 
d="M144 0h-153l107 497h153zM126 556l-108 151h166l59 -151h-117z" />
    <glyph glyph-name="iacute" unicode="&#xed;" horiz-adv-x="287" 
d="M420 707l-174 -151h-129l122 151h181zM144 0h-153l107 497h153z" />
    <glyph glyph-name="icircumflex" unicode="&#xee;" horiz-adv-x="287" 
d="M115 556h-124l150 151h141l84 -151h-114l-53 71zM144 0h-153l107 497h153z" />
    <glyph glyph-name="idieresis" unicode="&#xef;" horiz-adv-x="287" 
d="M144 0h-153l107 497h153zM28 624c0 43 39 82 85 82c39 0 66 -31 66 -67c0 -48 -43 -82 -83 -82c-41 0 -68 30 -68 67zM210 624c0 43 38 82 84 82c39 0 66 -31 66 -67c0 -48 -42 -82 -82 -82c-42 0 -68 30 -68 67z" />
    <glyph glyph-name="eth" unicode="&#xf0;" horiz-adv-x="564" 
d="M525 626l-73 -34c49 -58 78 -135 78 -228c0 -242 -133 -379 -298 -379c-154 0 -237 107 -237 221c0 150 113 244 249 244c66 0 115 -24 139 -55c-4 54 -28 100 -65 135l-139 -65l-36 84l78 37c-32 11 -68 16 -106 17l38 122c80 -1 159 -24 224 -67l113 53zM350 237
c0 54 -34 90 -92 90c-61 0 -112 -44 -112 -118c0 -48 33 -92 93 -92c61 0 111 48 111 120z" />
    <glyph glyph-name="ntilde" unicode="&#xf1;" horiz-adv-x="593" 
d="M231 557h-94c12 110 76 150 140 150c34 0 56 -11 75 -23c17 -12 33 -22 50 -22c25 0 37 18 42 44h94c-15 -106 -73 -150 -135 -150c-32 0 -55 11 -76 23c-18 10 -34 21 -53 21c-21 0 -37 -13 -43 -43zM457 0h-152l56 263c5 21 6 35 6 43c0 41 -22 69 -69 69
s-77 -37 -88 -87l-62 -288h-152l87 414c8 38 9 61 9 83h148c0 -6 0 -29 -3 -47c31 42 86 60 133 60c104 0 156 -70 156 -160c0 -18 -2 -36 -6 -55z" />
    <glyph glyph-name="ograve" unicode="&#xf2;" horiz-adv-x="568" 
d="M251 556l-108 151h166l59 -151h-117zM276 373c-73 0 -120 -72 -120 -148c0 -64 39 -101 91 -101s120 46 120 149c0 66 -37 99 -91 100zM518 280c0 -158 -115 -295 -281 -295c-138 0 -231 101 -231 233c0 177 130 294 281 294c141 0 231 -101 231 -232z" />
    <glyph glyph-name="oacute" unicode="&#xf3;" horiz-adv-x="568" 
d="M535 707l-174 -151h-129l122 151h181zM276 373c-73 0 -120 -72 -120 -148c0 -64 39 -101 91 -101s120 46 120 149c0 66 -37 99 -91 100zM518 280c0 -158 -115 -295 -281 -295c-138 0 -231 101 -231 233c0 177 130 294 281 294c141 0 231 -101 231 -232z" />
    <glyph glyph-name="ocircumflex" unicode="&#xf4;" horiz-adv-x="568" 
d="M238 556h-124l150 151h141l84 -151h-114l-53 71zM276 373c-73 0 -120 -72 -120 -148c0 -64 39 -101 91 -101s120 46 120 149c0 66 -37 99 -91 100zM518 280c0 -158 -115 -295 -281 -295c-138 0 -231 101 -231 233c0 177 130 294 281 294c141 0 231 -101 231 -232z" />
    <glyph glyph-name="otilde" unicode="&#xf5;" horiz-adv-x="568" 
d="M276 373c-73 0 -120 -72 -120 -148c0 -64 39 -101 91 -101s120 46 120 149c0 66 -37 99 -91 100zM518 280c0 -158 -115 -295 -281 -295c-138 0 -231 101 -231 233c0 177 130 294 281 294c141 0 231 -101 231 -232zM204 557h-94c12 110 76 150 140 150c34 0 56 -11 75 -23
c17 -12 33 -22 50 -22c25 0 37 18 42 44h94c-15 -106 -73 -150 -135 -150c-32 0 -55 11 -76 23c-18 10 -34 21 -53 21c-21 0 -37 -13 -43 -43z" />
    <glyph glyph-name="odieresis" unicode="&#xf6;" horiz-adv-x="568" 
d="M132 624c0 43 39 85 86 85c41 0 69 -32 69 -70c0 -48 -43 -83 -86 -83c-40 0 -69 31 -69 68zM350 624c0 43 39 85 85 85c41 0 70 -32 70 -70c0 -48 -43 -83 -86 -83c-41 0 -69 31 -69 68zM276 373c-73 0 -120 -72 -120 -148c0 -64 39 -101 91 -101s120 46 120 149
c0 66 -37 99 -91 100zM518 280c0 -158 -115 -295 -281 -295c-138 0 -231 101 -231 233c0 177 130 294 281 294c141 0 231 -101 231 -232z" />
    <glyph glyph-name="divide" unicode="&#xf7;" horiz-adv-x="588" 
d="M199 486c0 46 38 84 85 84c46 0 84 -38 84 -84s-38 -85 -84 -85c-47 0 -85 39 -85 85zM199 114c0 45 38 83 85 83c46 0 84 -38 84 -83c0 -46 -38 -85 -84 -85c-47 0 -85 39 -85 85zM35 237v124h505v-124h-505z" />
    <glyph glyph-name="oslash" unicode="&#xf8;" horiz-adv-x="568" 
d="M22 -37l-58 58l75 71c-22 36 -33 79 -33 126c0 177 130 294 281 294c57 0 106 -17 144 -46l74 71l56 -58l-76 -73c21 -36 33 -79 33 -126c0 -158 -115 -295 -281 -295c-57 0 -106 17 -144 46zM367 273c0 10 0 11 -1 19l-164 -157c13 -8 28 -11 45 -11
c52 0 120 46 120 149zM276 373c-73 0 -120 -72 -120 -148c0 -7 0 -14 1 -20l164 157c-13 7 -25 11 -45 11z" />
    <glyph glyph-name="ugrave" unicode="&#xf9;" horiz-adv-x="578" 
d="M85 497h152l-60 -281c-2 -10 -3 -19 -3 -28c0 -40 23 -66 68 -66c47 0 75 37 86 87l62 288h152l-86 -410c-4 -18 -9 -47 -9 -87h-147c-1 6 -1 14 -1 17c0 10 1 21 2 31c-23 -39 -74 -61 -120 -61c-107 0 -164 73 -164 165c0 17 2 35 6 53zM271 556l-108 151h166l59 -151
h-117z" />
    <glyph glyph-name="uacute" unicode="&#xfa;" horiz-adv-x="578" 
d="M532 707l-174 -151h-129l122 151h181zM85 497h152l-60 -281c-2 -10 -3 -19 -3 -28c0 -40 23 -66 68 -66c47 0 75 37 86 87l62 288h152l-86 -410c-4 -18 -9 -47 -9 -87h-147c-1 6 -1 14 -1 17c0 10 1 21 2 31c-23 -39 -74 -61 -120 -61c-107 0 -164 73 -164 165
c0 17 2 35 6 53z" />
    <glyph glyph-name="ucircumflex" unicode="&#xfb;" horiz-adv-x="578" 
d="M259 556h-124l150 151h141l84 -151h-114l-53 71zM85 497h152l-60 -281c-2 -10 -3 -19 -3 -28c0 -40 23 -66 68 -66c47 0 75 37 86 87l62 288h152l-86 -410c-4 -18 -9 -47 -9 -87h-147c-1 6 -1 14 -1 17c0 10 1 21 2 31c-23 -39 -74 -61 -120 -61c-107 0 -164 73 -164 165
c0 17 2 35 6 53z" />
    <glyph glyph-name="udieresis" unicode="&#xfc;" horiz-adv-x="578" 
d="M144 624c0 43 39 85 86 85c41 0 69 -32 69 -70c0 -48 -43 -83 -86 -83c-40 0 -69 31 -69 68zM362 624c0 43 39 85 85 85c41 0 70 -32 70 -70c0 -48 -43 -83 -86 -83c-41 0 -69 31 -69 68zM85 497h152l-60 -281c-2 -10 -3 -19 -3 -28c0 -40 23 -66 68 -66
c47 0 75 37 86 87l62 288h152l-86 -410c-4 -18 -9 -47 -9 -87h-147c-1 6 -1 14 -1 17c0 10 1 21 2 31c-23 -39 -74 -61 -120 -61c-107 0 -164 73 -164 165c0 17 2 35 6 53z" />
    <glyph glyph-name="yacute" unicode="&#xfd;" horiz-adv-x="534" 
d="M125 -190h-167l165 266l-103 421h159l56 -265l155 265h168zM508 707l-174 -151h-129l122 151h181z" />
    <glyph glyph-name="thorn" unicode="&#xfe;" horiz-adv-x="614" 
d="M-44 -190l194 914h153l-57 -267c27 31 72 50 123 50c129 0 195 -90 195 -209c-1 -182 -116 -310 -260 -310c-76 0 -126 33 -146 63l-50 -241h-152zM318 375c-72 0 -121 -73 -121 -149c0 -68 41 -102 92 -102c54 0 121 49 121 151c0 66 -40 100 -92 100z" />
    <glyph glyph-name="ydieresis" unicode="&#xff;" horiz-adv-x="534" 
d="M114 624c0 43 39 85 86 85c41 0 69 -32 69 -70c0 -48 -43 -83 -86 -83c-40 0 -69 31 -69 68zM332 624c0 43 39 85 85 85c41 0 70 -32 70 -70c0 -48 -43 -83 -86 -83c-41 0 -69 31 -69 68zM125 -190h-167l165 266l-103 421h159l56 -265l155 265h168z" />
    <glyph glyph-name="dotlessi" unicode="&#x131;" horiz-adv-x="287" 
d="M144 0h-153l107 497h153z" />
    <glyph glyph-name="Lslash" unicode="&#x141;" horiz-adv-x="586" 
d="M487 0h-458l58 277l-104 -43l26 123l104 43l66 309h158l-51 -238l138 57l-26 -122l-138 -57l-42 -198h301z" />
    <glyph glyph-name="lslash" unicode="&#x142;" horiz-adv-x="330" 
d="M158 0h-152l59 277l-90 -37l26 123l90 37l69 324h152l-55 -256l103 42l-26 -123l-103 -42z" />
    <glyph glyph-name="OE" unicode="&#x152;" horiz-adv-x="1070" 
d="M568 397c0 104 -58 175 -163 175c-103 0 -212 -90 -212 -256c0 -106 60 -177 162 -177c103 0 209 92 213 258zM939 0h-449l11 50c-45 -41 -102 -65 -169 -65c-179 0 -301 135 -301 322c0 261 185 417 382 417c100 0 172 -38 208 -103l19 88h449l-32 -149h-291l-29 -135
h264l-29 -139h-264l-29 -136h292z" />
    <glyph glyph-name="oe" unicode="&#x153;" horiz-adv-x="902" 
d="M594 -15c-69 0 -131 28 -173 76c-45 -46 -108 -76 -184 -76c-138 0 -231 101 -231 233c0 177 130 294 281 294c77 0 132 -27 167 -72c48 46 111 72 174 72c140 0 224 -90 224 -213c0 -23 -4 -59 -14 -89h-335c0 -53 35 -100 104 -100c43 0 77 24 93 56l118 -53
c-31 -65 -102 -128 -224 -128zM517 308h195c1 4 1 7 1 8c0 32 -23 75 -86 75c-60 0 -94 -34 -110 -83zM367 273c0 65 -37 100 -91 100c-73 0 -120 -72 -120 -148c0 -64 39 -101 91 -101s120 46 120 149z" />
    <glyph glyph-name="Scaron" unicode="&#x160;" horiz-adv-x="586" 
d="M457 891h145l-152 -132h-146l-95 132h132l43 -65zM264 122c61 0 96 29 96 74c0 28 -11 51 -51 68l-83 34c-96 39 -140 110 -140 195c0 140 121 230 258 230c195 0 245 -134 245 -207l-147 -24c0 20 -9 94 -105 94c-58 0 -92 -40 -92 -79c0 -36 22 -55 50 -67l75 -32
c110 -47 154 -113 154 -200c0 -111 -93 -223 -257 -223c-201 0 -271 135 -271 227c0 13 1 21 2 27l145 25c-1 -5 -2 -14 -2 -23c0 -59 36 -117 123 -119z" />
    <glyph glyph-name="scaron" unicode="&#x161;" horiz-adv-x="446" 
d="M347 707h126l-147 -151h-142l-83 151h112l55 -72zM-18 150l128 21c-1 -5 -1 -8 -1 -9c0 -42 26 -66 65 -66c36 0 53 19 53 41c0 15 -5 31 -34 43l-48 20c-84 35 -113 86 -113 145c0 90 79 167 194 167c156 0 188 -99 189 -156l-130 -15c0 26 -8 63 -60 63
c-29 0 -51 -18 -51 -43c0 -17 11 -30 27 -36l62 -25c84 -34 113 -88 113 -149c0 -81 -69 -166 -197 -166c-166 0 -197 112 -197 159v6z" />
    <glyph glyph-name="Ydieresis" unicode="&#x178;" horiz-adv-x="634" 
d="M198 817c0 42 38 87 87 87c43 0 72 -33 72 -71c0 -50 -42 -86 -86 -86s-73 30 -73 70zM431 817c0 42 38 87 88 87c42 0 71 -33 71 -71c0 -50 -41 -86 -86 -86c-44 0 -73 30 -73 70zM227 296l-154 413h167l90 -262l182 262h190l-317 -414l-62 -295h-159z" />
    <glyph glyph-name="Zcaron" unicode="&#x17d;" horiz-adv-x="643" 
d="M487 891h145l-152 -132h-146l-95 132h132l43 -65zM522 0h-552l33 152l416 406h-321l32 151h538l-30 -146l-427 -412h343z" />
    <glyph glyph-name="zcaron" unicode="&#x17e;" horiz-adv-x="500" 
d="M376 707h126l-147 -151h-142l-83 151h112l55 -72zM382 0h-417l28 134l263 234h-206l28 129h407l-27 -125l-274 -242h226z" />
    <glyph glyph-name="florin" unicode="&#x192;" horiz-adv-x="502" 
d="M88 30l69 341h-92v126h118l16 81c23 114 116 163 199 163c50 0 65 -5 96 -16v-130c-20 5 -39 8 -65 8c-24 0 -68 -11 -79 -68l-8 -38h110v-126h-136l-78 -384c-24 -115 -114 -163 -198 -163c-50 0 -68 5 -100 15v131c21 -5 44 -8 70 -8c23 0 66 11 78 68z" />
    <glyph glyph-name="circumflex" unicode="&#x2c6;" horiz-adv-x="387" 
d="M104 556h-124l150 151h141l84 -151h-114l-53 71z" />
    <glyph glyph-name="caron" unicode="&#x2c7;" horiz-adv-x="387" 
d="M262 707h126l-147 -151h-142l-83 151h112l55 -72z" />
    <glyph glyph-name="uni02C9" unicode="&#x2c9;" horiz-adv-x="303" 
d="M275 577h-285l22 105h286z" />
    <glyph glyph-name="breve" unicode="&#x2d8;" horiz-adv-x="409" 
d="M172 551c-98 0 -147 63 -147 132c0 10 1 17 2 24h96c-1 -3 -1 -6 -1 -7c0 -24 14 -51 58 -51c48 0 69 33 76 58h108c-19 -82 -81 -156 -192 -156z" />
    <glyph glyph-name="dotaccent" unicode="&#x2d9;" horiz-adv-x="177" 
d="M-9 625c0 49 43 96 98 96c46 0 79 -35 79 -77c0 -56 -45 -98 -96 -98c-48 0 -81 35 -81 79z" />
    <glyph glyph-name="ring" unicode="&#x2da;" horiz-adv-x="249" 
d="M126 764c59 0 108 -39 108 -100c0 -73 -63 -122 -127 -122c-59 0 -106 42 -106 101c0 72 62 121 125 121zM78 648c0 -20 15 -34 36 -34c22 0 40 17 40 41c0 19 -13 34 -34 34c-20 0 -42 -16 -42 -41z" />
    <glyph glyph-name="ogonek" unicode="&#x2db;" horiz-adv-x="193" 
d="M106 -226c-62 0 -118 38 -118 104c0 90 81 135 132 152l71 -30c-44 -15 -95 -50 -95 -95c0 -27 21 -39 49 -41c7 0 14 0 19 1l-18 -87c-10 -3 -23 -4 -40 -4z" />
    <glyph glyph-name="tilde" unicode="&#x2dc;" horiz-adv-x="371" 
d="M192 557h-94c12 110 76 150 140 150c34 0 56 -11 75 -23c17 -12 33 -22 50 -22c25 0 37 18 42 44h94c-15 -106 -73 -150 -135 -150c-32 0 -55 11 -76 23c-18 10 -34 21 -53 21c-21 0 -37 -13 -43 -43z" />
    <glyph glyph-name="hungarumlaut" unicode="&#x2dd;" horiz-adv-x="383" 
d="M210 707l-134 -151h-98l86 151h146zM389 707l-150 -151h-100l102 151h148z" />
    <glyph glyph-name="uni0394" unicode="&#x394;" horiz-adv-x="673" 
d="M450 148l-136 391l-136 -391h272zM-39 0l267 709h172l267 -709h-706z" />
    <glyph glyph-name="uni03A9" unicode="&#x3a9;" horiz-adv-x="776" 
d="M384 575c-94 0 -179 -65 -179 -178c0 -97 67 -162 146 -178v-219h-301v145h162c-95 39 -170 133 -170 266c0 191 160 314 342 314s342 -123 342 -314c0 -133 -76 -227 -171 -266h162v-145h-300v219c78 16 145 81 145 178c0 113 -85 178 -178 178z" />
    <glyph glyph-name="uni03BC" unicode="&#x3bc;" horiz-adv-x="610" 
d="M47 -190v687h153v-282c0 -48 26 -86 80 -86c51 0 82 35 82 85v283h153v-408c0 -38 3 -69 5 -89h-146c-2 9 -4 32 -4 50c-26 -43 -83 -61 -133 -61c-13 0 -26 1 -37 3v-182h-153z" />
    <glyph glyph-name="pi" unicode="&#x3c0;" horiz-adv-x="659" 
d="M536 368v-200c0 -36 24 -45 46 -45c20 0 22 1 31 3v-121c-1 0 -28 -14 -75 -14c-102 0 -154 60 -154 156v221h-116v-368h-153v368h-83v129h579v-129h-75z" />
    <glyph glyph-name="uni2007" unicode="&#x2007;" horiz-adv-x="613" 
 />
    <glyph glyph-name="uni2008" unicode="&#x2008;" horiz-adv-x="290" 
 />
    <glyph glyph-name="uni200B" unicode="&#x200b;" horiz-adv-x="0" 
 />
    <glyph glyph-name="endash" unicode="&#x2013;" horiz-adv-x="624" 
d="M544 236h-517l27 132h518z" />
    <glyph glyph-name="emdash" unicode="&#x2014;" horiz-adv-x="1060" 
d="M970 236h-933l27 132h934z" />
    <glyph glyph-name="quoteleft" unicode="&#x2018;" horiz-adv-x="209" 
d="M221 510c0 -49 -40 -88 -93 -88c-57 0 -84 44 -84 89c0 109 98 199 208 203l-15 -66c-42 -3 -92 -34 -106 -78c2 1 13 4 21 4c46 0 69 -33 69 -64z" />
    <glyph glyph-name="quoteright" unicode="&#x2019;" horiz-adv-x="207" 
d="M74 625c0 49 40 89 92 89c57 0 85 -44 85 -89c0 -109 -99 -200 -208 -204l14 67c38 2 93 32 106 77c-2 -1 -11 -4 -21 -4c-45 0 -68 33 -68 64z" />
    <glyph glyph-name="quotesinglbase" unicode="&#x201a;" horiz-adv-x="221" 
d="M-37 61c0 49 40 89 92 89c57 0 85 -44 85 -89c0 -109 -99 -200 -209 -205l15 68c38 1 93 32 106 77c-2 -1 -11 -4 -21 -4c-45 0 -68 33 -68 64z" />
    <glyph glyph-name="quotedblleft" unicode="&#x201c;" horiz-adv-x="415" 
d="M220 511c0 -49 -39 -89 -92 -89c-57 0 -84 44 -84 89c0 109 98 199 208 203l-15 -66c-42 -3 -92 -34 -106 -78c2 1 13 4 21 4c46 0 68 -32 68 -63zM427 511c0 -49 -39 -89 -92 -89c-57 0 -84 44 -84 89c0 109 98 199 208 203l-15 -66c-42 -3 -92 -34 -106 -78
c2 1 13 4 21 4c46 0 68 -32 68 -63z" />
    <glyph glyph-name="quotedblright" unicode="&#x201d;" horiz-adv-x="416" 
d="M74 625c0 49 39 89 92 89c57 0 84 -44 84 -89c0 -108 -98 -199 -207 -203l14 67c37 1 93 32 106 76c-1 0 -10 -3 -21 -3c-46 0 -68 32 -68 63zM284 625c0 49 39 89 92 89c57 0 84 -44 84 -89c0 -108 -98 -199 -208 -203l15 67c37 1 93 32 106 76c-1 0 -10 -3 -21 -3
c-46 0 -68 32 -68 63z" />
    <glyph glyph-name="quotedblbase" unicode="&#x201e;" horiz-adv-x="429" 
d="M-37 61c0 49 39 89 92 89c57 0 84 -44 84 -90c0 -108 -98 -199 -208 -203l15 67c37 2 93 32 106 77c-1 0 -10 -4 -21 -4c-46 0 -68 33 -68 64zM171 61c0 49 39 89 92 89c57 0 84 -44 84 -90c0 -108 -98 -199 -208 -203l15 67c37 2 93 32 106 77c-1 0 -10 -4 -21 -4
c-46 0 -68 33 -68 64z" />
    <glyph glyph-name="dagger" unicode="&#x2020;" horiz-adv-x="425" 
d="M222 709h126l-30 -139h120l-24 -114h-121l-62 -293h-126l62 293h-120l24 114h120z" />
    <glyph glyph-name="daggerdbl" unicode="&#x2021;" horiz-adv-x="440" 
d="M202 0h-126l30 141h-120l24 114h121l42 199h-121l24 114h121l30 141h126l-30 -141h121l-24 -114h-121l-42 -199h120l-24 -114h-121z" />
    <glyph glyph-name="bullet" unicode="&#x2022;" horiz-adv-x="536" 
d="M47 303c0 116 93 210 208 210s209 -94 209 -210c0 -113 -94 -208 -209 -208s-208 95 -208 208z" />
    <glyph glyph-name="ellipsis" unicode="&#x2026;" horiz-adv-x="868" 
d="M73 -14c-48 0 -81 37 -81 80c0 52 45 98 101 98c49 0 81 -37 81 -80c0 -53 -45 -98 -101 -98zM372 -14c-48 0 -80 37 -80 80c0 52 44 98 100 98c49 0 81 -37 81 -80c0 -53 -45 -98 -101 -98zM673 -14c-49 0 -81 37 -81 80c0 52 44 98 100 98c49 0 81 -37 81 -80
c0 -53 -44 -98 -100 -98z" />
    <glyph glyph-name="perthousand" unicode="&#x2030;" horiz-adv-x="1028" 
d="M191 430c32 0 67 26 67 75c0 31 -19 55 -51 55c-33 0 -67 -27 -67 -75c0 -32 19 -54 51 -55zM183 329c-88 0 -150 66 -150 150c0 108 89 182 182 182c87 0 150 -67 150 -150c0 -109 -91 -182 -182 -182zM597 92c32 0 67 26 67 75c0 31 -19 55 -51 55
c-33 0 -67 -27 -67 -75c0 -32 19 -54 51 -55zM821 92c32 0 67 26 67 75c0 31 -19 55 -51 55c-33 0 -67 -27 -67 -75c0 -32 19 -54 51 -55zM761 649l-587 -649h-134l587 649h134zM813 -9c-44 0 -81 16 -108 43c-33 -28 -74 -43 -116 -43c-88 0 -150 66 -150 150
c0 108 89 182 182 182c43 0 80 -17 106 -43c33 27 75 43 118 43c87 0 150 -67 150 -150c0 -109 -91 -182 -182 -182z" />
    <glyph glyph-name="guilsinglleft" unicode="&#x2039;" horiz-adv-x="309" 
d="M237 102h-135l-100 199l179 196h147l-189 -204z" />
    <glyph glyph-name="guilsinglright" unicode="&#x203a;" horiz-adv-x="300" 
d="M43 497h133l102 -199l-179 -196h-148l189 204z" />
    <glyph glyph-name="uni2042" unicode="&#x2042;" horiz-adv-x="812" 
d="M519 708l-21 -106l103 32l15 -98l-104 -30l47 -81l-88 -56l-49 86l-80 -89l-71 59l81 88l-93 30l44 92l92 -31l18 104h106zM251 327l-21 -106l103 32l15 -98l-104 -30l47 -81l-88 -56l-49 86l-80 -89l-71 59l81 88l-93 30l44 92l92 -31l18 104h106zM660 327l-21 -106
l103 32l15 -98l-104 -30l47 -81l-88 -56l-49 86l-80 -89l-71 59l81 88l-93 30l44 92l92 -31l18 104h106z" />
    <glyph glyph-name="fraction" unicode="&#x2044;" horiz-adv-x="534" 
d="M627 649l-587 -649h-134l587 649h134z" />
    <glyph glyph-name="uni2051" unicode="&#x2051;" horiz-adv-x="422" 
d="M336 708l-21 -106l103 32l15 -98l-104 -30l47 -81l-88 -56l-49 86l-80 -89l-71 59l81 88l-93 30l44 92l92 -31l18 104h106zM254 331l-21 -106l103 32l15 -98l-104 -30l47 -81l-88 -56l-49 86l-80 -89l-71 59l81 88l-93 30l44 92l92 -31l18 104h106z" />
    <glyph glyph-name="uni2070" unicode="&#x2070;" horiz-adv-x="422" 
d="M47 482c0 98 53 236 193 236c113 0 160 -69 160 -149c0 -101 -53 -237 -193 -237c-105 0 -160 63 -160 150zM162 484c0 -33 9 -58 47 -58c56 0 77 90 77 142c0 31 -11 56 -49 56c-55 0 -75 -91 -75 -140z" />
    <glyph glyph-name="uni2074" unicode="&#x2074;" horiz-adv-x="444" 
d="M51 411l24 114l201 184h121l-44 -212h60l-19 -86h-59l-15 -71h-113l15 71h-171zM240 497l21 97l-106 -97h85z" />
    <glyph glyph-name="uni2075" unicode="&#x2075;" horiz-adv-x="393" 
d="M47 463l100 10c0 -29 20 -46 47 -46c25 0 48 18 48 49c0 24 -19 39 -41 39c-21 0 -34 -9 -43 -18l-87 40l78 172h227l-19 -90h-152l-21 -47c12 9 37 14 56 14c72 0 112 -43 112 -106c0 -80 -64 -146 -159 -146c-94 0 -146 58 -146 129z" />
    <glyph glyph-name="uni2076" unicode="&#x2076;" horiz-adv-x="392" 
d="M397 689l-37 -84c-17 8 -41 18 -79 18c-44 0 -91 -21 -109 -60c17 12 44 20 69 20c74 0 115 -45 115 -106c0 -87 -70 -147 -160 -147c-87 0 -148 63 -148 155c0 145 114 229 235 229c49 0 82 -8 114 -25zM208 506c-24 0 -48 -17 -48 -46c0 -23 16 -39 38 -39
c27 0 49 18 49 48c0 21 -16 37 -39 37z" />
    <glyph glyph-name="uni2077" unicode="&#x2077;" horiz-adv-x="357" 
d="M395 709l-19 -92c-42 -30 -146 -113 -195 -277h-120c47 173 181 275 183 276h-179l19 93h311z" />
    <glyph glyph-name="uni2078" unicode="&#x2078;" horiz-adv-x="401" 
d="M202 595c0 -16 14 -30 34 -30c26 0 41 17 41 35c0 14 -8 30 -35 30s-40 -20 -40 -35zM164 451c0 -22 20 -35 43 -35c32 0 49 21 49 41c0 15 -9 34 -44 34c-32 0 -48 -23 -48 -40zM210 331c-108 0 -159 45 -159 105c0 51 43 88 95 97c-29 12 -48 44 -48 75
c0 60 60 109 146 109c100 0 145 -45 145 -103c0 -42 -35 -76 -82 -89c32 -10 58 -43 58 -78c0 -68 -65 -116 -155 -116z" />
    <glyph glyph-name="uni2079" unicode="&#x2079;" horiz-adv-x="412" 
d="M42 357l36 83c18 -10 44 -18 81 -18c40 0 92 20 108 64c-17 -13 -44 -22 -69 -22c-73 0 -115 46 -115 105c0 87 70 146 160 146c87 0 148 -62 148 -153c0 -147 -112 -231 -234 -231c-49 0 -83 9 -115 26zM231 539c24 0 47 18 47 47c0 22 -16 40 -38 40
c-27 0 -48 -20 -48 -50c0 -20 16 -37 39 -37z" />
    <glyph glyph-name="uni2080" unicode="&#x2080;" horiz-adv-x="422" 
d="M12 67c0 98 53 236 193 236c113 0 160 -69 160 -149c0 -101 -53 -237 -193 -237c-105 0 -160 63 -160 150zM127 69c0 -33 9 -58 47 -58c56 0 77 90 77 142c0 31 -11 56 -49 56c-55 0 -75 -91 -75 -140z" />
    <glyph glyph-name="uni2081" unicode="&#x2081;" horiz-adv-x="312" 
d="M154 -120h-115l46 217h-93l15 73c66 2 111 43 125 78h100z" />
    <glyph glyph-name="uni2082" unicode="&#x2082;" horiz-adv-x="385" 
d="M99 61l66 28c27 11 42 25 42 45c0 14 -9 34 -36 34c-33 0 -48 -24 -48 -56l-99 8c0 74 59 138 152 138c96 0 144 -52 144 -114c0 -61 -41 -103 -111 -132l-76 -32c-3 -1 -5 -4 -6 -5h151l-21 -95h-284c0 83 45 146 126 181z" />
    <glyph glyph-name="uni2083" unicode="&#x2083;" horiz-adv-x="430" 
d="M137 40l-27 70l105 49h-167l19 91h291l-22 -105l-96 -46c45 -10 76 -44 76 -92c0 -72 -65 -134 -163 -134s-151 62 -151 125c0 4 1 10 1 14l104 6c-1 -4 -1 -7 -1 -8c0 -26 18 -45 49 -45c30 0 48 19 48 43s-20 36 -43 36c-11 0 -20 -3 -23 -4z" />
    <glyph glyph-name="uni2084" unicode="&#x2084;" horiz-adv-x="435" 
d="M-26 -49l24 114l201 184h121l-44 -212h60l-19 -86h-59l-15 -71h-113l15 71h-171zM163 37l21 97l-106 -97h85z" />
    <glyph glyph-name="uni2085" unicode="&#x2085;" horiz-adv-x="393" 
d="M-26 3l100 10c0 -29 20 -46 47 -46c25 0 48 18 48 49c0 24 -19 39 -41 39c-21 0 -34 -9 -43 -18l-87 40l78 172h227l-19 -90h-152l-21 -47c12 9 37 14 56 14c72 0 112 -43 112 -106c0 -80 -64 -146 -159 -146c-94 0 -146 58 -146 129z" />
    <glyph glyph-name="uni2086" unicode="&#x2086;" horiz-adv-x="392" 
d="M323 231l-37 -84c-17 8 -41 18 -79 18c-44 0 -91 -21 -109 -60c17 12 44 20 69 20c74 0 115 -45 115 -106c0 -87 -70 -147 -160 -147c-87 0 -148 63 -148 155c0 145 114 229 235 229c49 0 82 -8 114 -25zM134 48c-24 0 -48 -17 -48 -46c0 -23 16 -39 38 -39
c27 0 49 18 49 48c0 21 -16 37 -39 37z" />
    <glyph glyph-name="uni2087" unicode="&#x2087;" horiz-adv-x="357" 
d="M327 248l-19 -92c-42 -30 -146 -113 -195 -277h-120c47 173 181 275 183 276h-179l19 93h311z" />
    <glyph glyph-name="uni2088" unicode="&#x2088;" horiz-adv-x="401" 
d="M134 135c0 -16 14 -30 34 -30c26 0 41 17 41 35c0 14 -8 30 -35 30s-40 -20 -40 -35zM96 -9c0 -22 20 -35 43 -35c32 0 49 21 49 41c0 15 -9 34 -44 34c-32 0 -48 -23 -48 -40zM142 -129c-108 0 -159 45 -159 105c0 51 43 88 95 97c-29 12 -48 44 -48 75
c0 60 60 109 146 109c100 0 145 -45 145 -103c0 -42 -35 -76 -82 -89c32 -10 58 -43 58 -78c0 -68 -65 -116 -155 -116z" />
    <glyph glyph-name="uni2089" unicode="&#x2089;" horiz-adv-x="412" 
d="M-16 -101l36 83c18 -10 44 -18 81 -18c40 0 92 20 108 64c-17 -13 -44 -22 -69 -22c-73 0 -115 46 -115 105c0 87 70 146 160 146c87 0 148 -62 148 -153c0 -147 -112 -231 -234 -231c-49 0 -83 9 -115 26zM173 81c24 0 47 18 47 47c0 22 -16 40 -38 40
c-27 0 -48 -20 -48 -50c0 -20 16 -37 39 -37z" />
    <glyph glyph-name="Euro" unicode="&#x20ac;" horiz-adv-x="665" 
d="M48 351l22 97h78c61 137 196 216 338 216c96 0 155 -29 197 -65l-79 -111c-27 25 -76 42 -130 42s-119 -24 -162 -82h268l-63 -97h-245c-3 -18 -5 -37 -5 -58h215l-61 -98h-132c30 -52 85 -75 151 -75c39 0 73 11 101 27l44 -117c-44 -26 -103 -45 -167 -45
c-151 0 -259 84 -292 210h-111l22 98h78c1 20 2 39 5 58h-72z" />
    <glyph glyph-name="uni2113" unicode="&#x2113;" horiz-adv-x="493" 
d="M102 142c0 8 3 29 4 39c-24 -4 -49 -7 -74 -9l27 131c22 2 47 6 73 13l42 197c22 103 93 156 174 156c94 0 144 -56 144 -138c0 -110 -96 -233 -243 -303l-5 -24c-2 -8 -2 -15 -2 -21c0 -62 54 -65 75 -65c37 0 57 7 74 15l-27 -124c-12 -7 -40 -19 -86 -19
c-111 0 -176 60 -176 152zM309 507l-25 -116c39 31 74 80 74 128c0 15 -9 22 -20 22s-23 -6 -29 -34z" />
    <glyph glyph-name="trademark" unicode="&#x2122;" horiz-adv-x="877" 
d="M355 618h-97l-57 -274h-102l57 274h-100l19 91h299zM785 344h-100l46 220l-126 -220h-71l-44 222l-46 -222h-99l77 365h137l39 -194l114 194h150z" />
    <glyph glyph-name="Omega" unicode="&#x2126;" horiz-adv-x="776" 
d="M384 575c-94 0 -179 -65 -179 -178c0 -97 67 -162 146 -178v-219h-301v145h162c-95 39 -170 133 -170 266c0 191 160 314 342 314s342 -123 342 -314c0 -133 -76 -227 -171 -266h162v-145h-300v219c78 16 145 81 145 178c0 113 -85 178 -178 178z" />
    <glyph glyph-name="uni2160" unicode="&#x2160;" horiz-adv-x="480" 
d="M98 649h410l-27 -131h-127l-82 -387h126l-27 -131h-410l27 131h127l82 387h-126z" />
    <glyph glyph-name="uni2161" unicode="&#x2161;" horiz-adv-x="780" 
d="M98 649h710l-27 -131h-135l-82 -387h134l-27 -131h-710l27 131h135l82 387h-134zM362 518l-82 -387h127l82 387h-127z" />
    <glyph glyph-name="uni2162" unicode="&#x2162;" horiz-adv-x="1054" 
d="M682 131l81 387h-122l-81 -387h122zM403 131l81 387h-122l-81 -387h122zM-39 0l27 131h136l81 387h-134l27 131h984l-27 -131h-135l-81 -387h133l-27 -131h-984z" />
    <glyph glyph-name="uni2163" unicode="&#x2163;" horiz-adv-x="1053" 
d="M71 518l27 131h994l-27 -131h-105l-202 -387h224l-27 -131h-994l27 131h132l82 387h-131zM360 518l-82 -387h200l-42 387h-76zM593 518l29 -339l171 339h-200z" />
    <glyph glyph-name="uni2164" unicode="&#x2164;" horiz-adv-x="785" 
d="M-13 131h223l-42 387h-99l27 131h727l-27 -131h-103l-202 -387h222l-27 -131h-726zM325 518l29 -339l171 339h-200z" />
    <glyph glyph-name="uni2165" unicode="&#x2165;" horiz-adv-x="1058" 
d="M70 518l27 131h989l-27 -131h-133l-82 -387h132l-27 -131h-989l27 131h224l-42 387h-99zM694 518l-202 -387h194l82 387h-74zM326 518l29 -339l171 339h-200z" />
    <glyph glyph-name="uni2166" unicode="&#x2166;" horiz-adv-x="1333" 
d="M355 179l172 339h-201zM687 131l81 387h-74l-202 -387h195zM962 131l81 387h-118l-81 -387h118zM1225 0h-1265l27 131h224l-42 387h-99l27 131h1264l-27 -131h-134l-81 -387h133z" />
    <glyph glyph-name="uni2167" unicode="&#x2167;" horiz-adv-x="1605" 
d="M71 518l27 131h1535l-27 -131h-133l-82 -387h133l-27 -131h-1536l27 131h224l-42 387h-99zM694 518l-202 -387h195l82 387h-75zM1199 518l-82 -387h117l82 387h-117zM926 518l-82 -387h116l82 387h-116zM327 518l29 -339l171 339h-200z" />
    <glyph glyph-name="uni2168" unicode="&#x2168;" horiz-adv-x="1028" 
d="M71 518l27 131h968l-27 -131h-103l-187 -197l103 -190h104l-27 -131h-968l27 131h132l82 387h-131zM542 322l-104 196h-78l-82 -387h79zM618 518l44 -89l82 89h-126zM629 216l-80 -85h123z" />
    <glyph glyph-name="uni2169" unicode="&#x2169;" horiz-adv-x="762" 
d="M276 322l-104 196h-102l27 131h703l-27 -131h-103l-187 -197l103 -190h104l-27 -131h-703l27 131h105zM352 518l45 -89l82 89h-127zM363 216l-80 -85h123z" />
    <glyph glyph-name="uni216C" unicode="&#x216c;" horiz-adv-x="646" 
d="M98 649h389l-27 -131h-122l-82 -387h160l35 166h149l-63 -297h-576l27 131h111l82 387h-110z" />
    <glyph glyph-name="uni216D" unicode="&#x216d;" horiz-adv-x="730" 
d="M587 649h152l-54 -263h-153c-2 43 -24 139 -152 139c-87 0 -198 -70 -198 -236c0 -103 66 -165 161 -165c96 0 145 66 161 107l1 5h154l-50 -236h-153l11 52c-35 -38 -87 -68 -162 -68c-154 0 -273 121 -273 294c0 235 165 386 351 386c107 0 162 -38 189 -85z" />
    <glyph glyph-name="uni216E" unicode="&#x216e;" horiz-adv-x="750" 
d="M-39 0l27 131h119l81 387h-116l26 131h314c184 0 286 -100 286 -261c0 -242 -162 -388 -376 -388h-361zM346 518l-82 -387h51c110 0 223 80 223 241c0 97 -60 146 -150 146h-42z" />
    <glyph glyph-name="uni216F" unicode="&#x216f;" horiz-adv-x="1026" 
d="M319 131l-27 -131h-331l27 131h111l81 387h-109l27 131h316l73 -391l224 391h344l-27 -131h-110l-81 -387h108l-27 -131h-342l27 131h75l62 290l-246 -412h-110l-74 402l-58 -280h67z" />
    <glyph glyph-name="arrowleft" unicode="&#x2190;" horiz-adv-x="1080" 
d="M271 57l-285 244l285 246v-180h753v-131h-753v-179z" />
    <glyph glyph-name="arrowup" unicode="&#x2191;" horiz-adv-x="504" 
d="M273 800l243 -277h-177v-669h-131v669h-181z" />
    <glyph glyph-name="arrowright" unicode="&#x2192;" horiz-adv-x="1114" 
d="M1084 301l-314 -247v182h-749v131h749v182z" />
    <glyph glyph-name="arrowdown" unicode="&#x2193;" horiz-adv-x="492" 
d="M479 131l-245 -279l-248 279h183v668h131v-668h179z" />
    <glyph glyph-name="uni2196" unicode="&#x2196;" horiz-adv-x="877" 
d="M69 708h352l-130 -131l499 -498l-92 -92l-499 498l-130 -131v354z" />
    <glyph glyph-name="uni2197" unicode="&#x2197;" horiz-adv-x="749" 
d="M310 708h352v-354l-130 131l-499 -498l-93 92l499 499z" />
    <glyph glyph-name="uni2198" unicode="&#x2198;" horiz-adv-x="850" 
d="M763 1h-352l129 130l-498 499l92 92l499 -498l130 131v-354z" />
    <glyph glyph-name="uni2199" unicode="&#x2199;" horiz-adv-x="740" 
d="M384 1h-352v354l130 -131l499 498l92 -92l-499 -498z" />
    <glyph glyph-name="uni21A9" unicode="&#x21a9;" horiz-adv-x="874" 
d="M252 24l-284 244l284 246v-182h359c72 0 115 43 115 92c0 53 -43 91 -115 91h-204v131h210c146 0 246 -95 246 -222c0 -129 -97 -224 -246 -224h-365v-176z" />
    <glyph glyph-name="uni21B0" unicode="&#x21b0;" horiz-adv-x="819" 
d="M316 235l-284 245l284 245v-180h427v-545h-131v414h-296v-179z" />
    <glyph glyph-name="uni21B1" unicode="&#x21b1;" horiz-adv-x="764" 
d="M166 0h-131v545h432v180l284 -245l-284 -245v179h-301v-414z" />
    <glyph glyph-name="uni21B2" unicode="&#x21b2;" horiz-adv-x="777" 
d="M570 709h131v-545h-431v-180l-285 246l285 244v-179h300v414z" />
    <glyph glyph-name="uni21B3" unicode="&#x21b3;" horiz-adv-x="857" 
d="M499 474l284 -244l-284 -246v180h-432v545h131v-414h301v179z" />
    <glyph glyph-name="uni21B4" unicode="&#x21b4;" horiz-adv-x="792" 
d="M64 578v131h558v-449h180l-242 -275l-246 275h177v318h-427z" />
    <glyph glyph-name="uni21C6" unicode="&#x21c6;" horiz-adv-x="1197" 
d="M1142 158l-284 -244v179h-757v131h757v180zM353 320l-284 244l284 246v-183h756v-131h-756v-176z" />
    <glyph glyph-name="partialdiff" unicode="&#x2202;" horiz-adv-x="667" 
d="M281 580c-28 0 -82 -3 -148 -35l-54 123c76 41 152 52 210 52c130 0 327 -61 327 -372c0 -199 -91 -364 -297 -364c-135 0 -261 84 -261 248c0 150 129 230 242 230c99 0 138 -34 156 -55c-12 131 -87 173 -175 173zM337 335c-85 0 -125 -48 -125 -109
c0 -64 58 -102 112 -102c97 0 130 83 136 163c-28 28 -66 48 -123 48z" />
    <glyph glyph-name="Delta" unicode="&#x2206;" horiz-adv-x="673" 
d="M450 148l-136 391l-136 -391h272zM-39 0l267 709h172l267 -709h-706z" />
    <glyph glyph-name="product" unicode="&#x220f;" horiz-adv-x="685" 
d="M606 0h-159v563h-215v-563h-158v709h532v-709z" />
    <glyph glyph-name="summation" unicode="&#x2211;" horiz-adv-x="566" 
d="M27 0v145l246 208l-246 212v144h523v-147h-306l243 -209l-252 -206h315v-147h-523z" />
    <glyph glyph-name="minus" unicode="&#x2212;" horiz-adv-x="584" 
d="M36 237v124h501v-124h-501z" />
    <glyph glyph-name="uni2215" unicode="&#x2215;" horiz-adv-x="431" 
d="M385 662h140l-476 -676h-138z" />
    <glyph glyph-name="uni2219" unicode="&#x2219;" horiz-adv-x="289" 
d="M42 313c0 52 44 100 102 100c49 0 84 -37 84 -80c0 -60 -47 -104 -102 -104c-50 0 -84 38 -84 84z" />
    <glyph glyph-name="radical" unicode="&#x221a;" horiz-adv-x="687" 
d="M747 762h-138l-253 -762h-132l-190 542h140l117 -346l225 689h231v-123z" />
    <glyph glyph-name="infinity" unicode="&#x221e;" horiz-adv-x="838" 
d="M32 290c0 111 84 195 201 195c66 0 128 -34 183 -95c56 58 116 95 180 95c116 0 201 -84 201 -195s-85 -194 -201 -194c-69 0 -125 31 -183 93c-57 -61 -114 -93 -180 -93c-117 0 -201 83 -201 194zM235 353c-40 0 -66 -28 -66 -64s26 -63 66 -63c33 0 66 25 96 61
c-32 38 -62 66 -96 66zM594 226c39 0 66 27 66 63s-27 64 -66 64c-34 0 -65 -27 -97 -64c31 -36 63 -63 97 -63z" />
    <glyph glyph-name="integral" unicode="&#x222b;" horiz-adv-x="343" 
d="M78 -9v520c0 122 75 199 197 199h59v-133h-54c-29 0 -50 -21 -50 -58v-520c0 -122 -75 -199 -197 -199h-60v133h54c29 0 51 21 51 58z" />
    <glyph glyph-name="approxequal" unicode="&#x2248;" horiz-adv-x="669" 
d="M522 479l80 -65c-37 -70 -100 -109 -171 -109c-36 0 -74 10 -111 31l-48 26c-16 9 -33 13 -49 13c-32 0 -62 -17 -85 -49l-82 65c37 70 101 109 172 109c35 0 72 -9 109 -29l48 -26c17 -10 35 -14 53 -14c32 0 62 16 84 48zM522 275l80 -66c-37 -70 -100 -109 -171 -109
c-36 0 -74 10 -111 31l-48 26c-17 9 -34 13 -50 13c-32 0 -62 -16 -84 -48l-82 65c37 70 100 108 171 108c36 0 73 -9 110 -29l48 -26c17 -9 35 -14 52 -14c32 0 63 16 85 49z" />
    <glyph glyph-name="notequal" unicode="&#x2260;" horiz-adv-x="619" 
d="M56 339v122h287l54 88h132l-54 -88h76v-122h-151l-48 -79h199v-122h-274l-59 -96h-132l59 96h-89v122h164l48 79h-212z" />
    <glyph glyph-name="lessequal" unicode="&#x2264;" horiz-adv-x="581" 
d="M65 40v124h439v-124h-439zM65 322v120l439 130v-123l-266 -65l266 -66v-126z" />
    <glyph glyph-name="greaterequal" unicode="&#x2265;" horiz-adv-x="581" 
d="M504 164v-124h-439v124h439zM504 442v-120l-439 -130v123l266 65l-266 67v125z" />
    <glyph glyph-name="dotmath" unicode="&#x22c5;" horiz-adv-x="289" 
d="M42 313c0 52 44 100 102 100c49 0 84 -37 84 -80c0 -60 -47 -104 -102 -104c-50 0 -84 38 -84 84z" />
    <glyph glyph-name="uni24C5" unicode="&#x24c5;" horiz-adv-x="804" 
d="M27 354c0 204 165 371 370 371c204 0 370 -167 370 -371s-166 -370 -370 -370c-205 0 -370 166 -370 370zM115 354c0 -161 123 -288 282 -288c158 0 281 127 281 288s-123 289 -281 289c-159 0 -282 -128 -282 -289zM390 372h38c34 0 64 23 64 59c0 24 -16 38 -44 38h-37
zM440 288h-68l-28 -134h-104l85 399h152c71 0 119 -52 119 -115c0 -81 -65 -150 -156 -150z" />
    <glyph glyph-name="filledbox" unicode="&#x25a0;" horiz-adv-x="888" 
d="M90 0v709h709v-709h-709z" />
    <glyph glyph-name="H22073" unicode="&#x25a1;" horiz-adv-x="888" 
d="M799 0h-709v709h709v-709zM220 579v-450h444v450h-444z" />
    <glyph glyph-name="triagup" unicode="&#x25b2;" horiz-adv-x="813" 
d="M347 725l418 -725h-839z" />
    <glyph glyph-name="uni25B3" unicode="&#x25b3;" horiz-adv-x="812" 
d="M-74 0l420 725l418 -725h-838zM346 463l-193 -333h384z" />
    <glyph glyph-name="lozenge" unicode="&#x25ca;" horiz-adv-x="639" 
d="M319 142l123 212l-123 213l-123 -213zM407 0h-175l-210 354l210 355h175l210 -355z" />
    <glyph glyph-name="circle" unicode="&#x25cb;" horiz-adv-x="806" 
d="M773 354c0 -205 -165 -370 -370 -370s-371 165 -371 370s166 371 371 371s370 -166 370 -371zM641 354c0 132 -107 242 -238 242c-132 0 -240 -110 -240 -242s108 -241 240 -241c131 0 238 109 238 241z" />
    <glyph glyph-name="H18533" unicode="&#x25cf;" horiz-adv-x="806" 
d="M32 354c0 205 165 371 370 371s371 -166 371 -371s-166 -370 -371 -370s-370 165 -370 370z" />
    <glyph glyph-name="uni262E" unicode="&#x262e;" horiz-adv-x="804" 
d="M771 354c0 -205 -165 -370 -370 -370c-204 0 -370 165 -370 370s166 371 370 371c205 0 370 -166 370 -371zM641 354c0 112 -77 209 -179 237v-171l170 -131c6 21 9 43 9 65zM159 354c0 -22 2 -43 8 -63l168 129v170c-101 -30 -176 -125 -176 -236zM462 117
c40 11 77 33 106 62l-106 86v-148zM230 181c29 -29 65 -52 105 -63v146z" />
    <glyph glyph-name="uni2713" unicode="&#x2713;" horiz-adv-x="877" 
d="M913 633l-606 -649l-298 329l95 89l207 -226l510 549z" />
    <glyph glyph-name="uni2715" unicode="&#x2715;" horiz-adv-x="793" 
d="M125 -5l-90 91l268 269l-268 266l91 90l268 -265l264 265l91 -90l-264 -265l273 -270l-90 -91l-274 270z" />
    <glyph glyph-name="uni2780" unicode="&#x2780;" horiz-adv-x="804" 
d="M31 354c0 204 166 371 370 371s371 -167 371 -371s-167 -370 -371 -370s-370 166 -370 370zM120 354c0 -161 122 -288 281 -288s282 127 282 288s-123 289 -282 289s-281 -128 -281 -289zM478 172h-115v212h-94v73c70 1 101 48 108 83h101v-368z" />
    <glyph glyph-name="uni2781" unicode="&#x2781;" horiz-adv-x="804" 
d="M401 725c204 0 371 -167 371 -371s-167 -370 -371 -370s-370 166 -370 370s166 371 370 371zM120 354c0 -161 122 -288 281 -288s282 127 282 288s-123 289 -282 289s-281 -128 -281 -289zM339 359l60 34c23 13 35 28 35 45c0 13 -9 34 -38 34c-31 0 -46 -21 -46 -46
c0 -6 1 -13 3 -19h-100c-2 9 -4 15 -4 27c0 68 50 128 150 128c94 0 148 -57 148 -125c0 -48 -31 -83 -84 -114l-69 -40c-2 -1 -3 -3 -3 -4h159v-95h-303v13c0 68 23 123 92 162z" />
    <glyph glyph-name="uni2782" unicode="&#x2782;" horiz-adv-x="804" 
d="M31 354c0 204 166 371 370 371s371 -167 371 -371s-167 -370 -371 -370s-370 166 -370 370zM120 354c0 -161 122 -288 281 -288s282 127 282 288s-123 289 -282 289s-281 -128 -281 -289zM244 278l103 18c1 -25 21 -47 52 -47c29 0 47 17 47 38c0 28 -22 40 -46 40
c-10 0 -20 -2 -29 -6l-35 74l80 47h-158v92h290v-92l-85 -52c61 -9 98 -45 98 -105c0 -69 -60 -128 -162 -128c-93 0 -150 59 -155 121z" />
    <glyph glyph-name="uni2783" unicode="&#x2783;" horiz-adv-x="804" 
d="M31 354c0 204 166 371 370 371s371 -167 371 -371s-167 -370 -371 -370s-370 166 -370 370zM120 354c0 -161 122 -288 281 -288s282 127 282 288s-123 289 -282 289s-281 -128 -281 -289zM220 248v104l165 195h121v-213h59v-86h-59v-70h-113v70h-173zM393 334v89l-76 -89
h76z" />
    <glyph glyph-name="uni2784" unicode="&#x2784;" horiz-adv-x="804" 
d="M31 354c0 204 166 371 370 371s371 -167 371 -371s-167 -370 -371 -370s-370 166 -370 370zM120 354c0 -161 122 -288 281 -288s282 127 282 288s-123 289 -282 289s-281 -128 -281 -289zM239 277l100 18c2 -28 26 -45 55 -45c27 0 46 14 46 40c0 32 -21 46 -50 46
c-19 0 -36 -9 -47 -20l-92 26l44 189h231v-90h-165l-12 -52c17 13 45 20 71 20c80 0 130 -44 130 -119c0 -73 -55 -133 -156 -133c-86 0 -148 53 -155 120z" />
    <glyph glyph-name="uni2785" unicode="&#x2785;" horiz-adv-x="804" 
d="M31 354c0 204 166 371 370 371s371 -167 371 -371s-167 -370 -371 -370s-370 166 -370 370zM120 354c0 -161 122 -288 281 -288s282 127 282 288s-123 289 -282 289s-281 -128 -281 -289zM539 533l-19 -87c-17 6 -41 11 -66 11c-46 0 -97 -17 -114 -71c20 18 50 28 82 28
c71 0 130 -39 130 -116c0 -79 -66 -136 -162 -136c-92 0 -164 67 -164 171c0 135 98 215 222 215c30 0 60 -5 91 -15zM344 294c0 -24 21 -42 47 -42c25 0 46 18 46 42c0 26 -21 43 -46 43c-26 0 -47 -17 -47 -43z" />
    <glyph glyph-name="uni2786" unicode="&#x2786;" horiz-adv-x="804" 
d="M31 354c0 204 166 371 370 371s371 -167 371 -371s-167 -370 -371 -370s-370 166 -370 370zM120 354c0 -161 122 -288 281 -288s282 127 282 288s-123 289 -282 289s-281 -128 -281 -289zM554 529v-92c-34 -28 -121 -111 -136 -276h-120c11 174 124 275 124 275h-180v93
h312z" />
    <glyph glyph-name="uni2787" unicode="&#x2787;" horiz-adv-x="804" 
d="M31 354c0 204 166 371 370 371s371 -167 371 -371s-167 -370 -371 -370s-370 166 -370 370zM120 354c0 -161 122 -288 281 -288s282 127 282 288s-123 289 -282 289s-281 -128 -281 -289zM402 395c27 1 40 19 40 35c0 13 -12 31 -40 31s-40 -18 -40 -31
c0 -16 13 -34 40 -35zM402 251c36 0 49 21 49 39c0 16 -14 36 -49 36s-49 -20 -49 -36c0 -18 13 -39 49 -39zM402 164c-101 0 -161 45 -161 111c0 42 33 76 76 88c-42 12 -65 47 -65 82c0 59 52 105 150 105c99 0 150 -46 150 -105c0 -35 -22 -70 -65 -82
c41 -11 76 -44 76 -84c0 -69 -57 -115 -161 -115z" />
    <glyph glyph-name="uni2788" unicode="&#x2788;" horiz-adv-x="804" 
d="M31 354c0 204 166 371 370 371s371 -167 371 -371s-167 -370 -371 -370s-370 166 -370 370zM120 354c0 -161 122 -288 281 -288s282 127 282 288s-123 289 -282 289s-281 -128 -281 -289zM267 178l16 87c18 -6 41 -11 67 -11c48 0 99 18 114 73c-21 -19 -52 -28 -85 -28
c-65 0 -132 40 -132 116c0 79 62 135 162 135c92 0 163 -67 163 -169c0 -139 -91 -218 -213 -218c-29 0 -61 4 -92 15zM452 419c0 24 -20 42 -46 42s-47 -18 -47 -42c0 -26 21 -44 47 -44s46 18 46 44z" />
    <glyph glyph-name="uniE000" unicode="&#xe000;" horiz-adv-x="711" 
d="M223 -15l-242 275h180v449h558v-131h-427v-318h176z" />
    <glyph glyph-name="uni21B5" unicode="&#xe001;" horiz-adv-x="1125" 
d="M265 83l-233 271h164c0 205 166 371 371 371c60 0 119 -14 169 -41l-60 -116c-33 18 -70 27 -109 27c-132 0 -240 -109 -240 -241h170zM932 354c0 -205 -165 -370 -370 -370c-60 0 -118 15 -169 41l60 115c33 -17 70 -27 109 -27c131 0 237 109 237 241h-169l232 271
l233 -271h-163z" />
    <glyph glyph-name="uniE002" unicode="&#xe002;" horiz-adv-x="960" 
d="M478 354l232 271l233 -271h-161c0 -205 -165 -370 -370 -370s-371 165 -371 370s166 371 371 371c51 0 100 -10 145 -29l-51 -121c-28 13 -60 20 -94 20c-132 0 -240 -109 -240 -241s108 -241 240 -241c131 0 237 109 237 241h-171z" />
    <glyph glyph-name="uniFB00" unicode="&#xfb00;" horiz-adv-x="711" 
d="M175 0h-153l79 369h-84l27 128h84l13 62c27 124 105 174 206 174c30 0 69 -8 89 -19l-26 -124c0 -1 -13 9 -45 9c-33 0 -67 -15 -76 -55l-10 -47h182l13 62c27 124 105 174 205 174c31 0 70 -8 90 -19l-26 -124c0 -1 -13 9 -45 9c-34 0 -67 -15 -76 -55l-10 -47h103
l-28 -128h-102l-77 -369h-153l78 369h-181z" />
    <glyph glyph-name="fi" unicode="&#xfb01;" horiz-adv-x="646" 
d="M252 369l-77 -369h-153l79 369h-84l27 128h84l16 71c26 115 102 165 203 165c30 0 69 -8 89 -19l-26 -124c0 -1 -15 9 -47 9c-40 0 -65 -21 -75 -63l-9 -39h330l-106 -497h-152l78 369h-177zM475 642c0 54 43 96 98 96c47 0 79 -33 79 -77c0 -58 -47 -96 -98 -96
c-46 0 -79 33 -79 77z" />
    <glyph glyph-name="fl" unicode="&#xfb02;" horiz-adv-x="645" 
d="M252 369l-77 -369h-153l79 369h-84l27 128h84l16 71c26 115 102 165 203 165c30 0 69 -8 89 -19l-26 -124c0 -1 -15 9 -47 9c-41 0 -66 -24 -75 -64l-9 -38h176l49 227h152l-154 -724h-152l78 369h-176z" />
    <glyph glyph-name="uniFB03" unicode="&#xfb03;" horiz-adv-x="976" 
d="M805 642c0 54 42 96 97 96c48 0 80 -33 80 -77c0 -58 -47 -96 -98 -96c-46 0 -79 33 -79 77zM175 0h-153l79 369h-84l27 128h84l13 62c27 124 105 174 206 174c30 0 69 -8 89 -19l-26 -124c0 -1 -13 9 -45 9c-33 0 -67 -15 -76 -55l-10 -47h182l13 62
c27 124 105 174 205 174c31 0 70 -8 90 -19l-26 -124c0 -1 -13 9 -45 9c-34 0 -67 -15 -76 -55l-10 -47h326l-105 -497h-152l79 369h-175l-77 -369h-153l78 369h-181z" />
    <glyph glyph-name="uniFB04" unicode="&#xfb04;" horiz-adv-x="983" 
d="M175 0h-153l79 369h-84l27 128h84l13 62c27 124 105 174 206 174c30 0 69 -8 89 -19l-26 -124c0 -1 -13 9 -45 9c-33 0 -67 -15 -76 -55l-10 -47h182l13 62c27 124 105 174 205 174c31 0 70 -8 90 -19l-26 -124c0 -1 -13 9 -45 9c-34 0 -67 -15 -76 -55l-10 -47h182
l47 227h153l-154 -724h-152l78 369h-181l-77 -369h-153l78 369h-181z" />
    <glyph glyph-name="uniFEFF" unicode="&#xfeff;" horiz-adv-x="0" 
 />
    <glyph glyph-name="zero.numr" horiz-adv-x="422" 
d="M42 422c0 98 53 236 193 236c113 0 160 -69 160 -149c0 -101 -53 -237 -193 -237c-105 0 -160 63 -160 150zM157 424c0 -33 9 -58 47 -58c56 0 77 90 77 142c0 31 -11 56 -49 56c-55 0 -75 -91 -75 -140z" />
    <glyph glyph-name="one.numr" horiz-adv-x="312" 
d="M202 281h-115l46 217h-93l15 73c66 2 111 43 125 78h100z" />
    <glyph glyph-name="two.numr" horiz-adv-x="392" 
d="M158 461l66 28c27 11 42 25 42 45c0 14 -9 34 -36 34c-33 0 -48 -24 -48 -56l-99 8c0 74 59 138 152 138c96 0 144 -52 144 -114c0 -61 -41 -103 -111 -132l-76 -32c-3 -1 -5 -4 -6 -5h151l-21 -95h-284c0 83 45 146 126 181z" />
    <glyph glyph-name="three.numr" horiz-adv-x="430" 
d="M187 439l-27 70l105 49h-167l19 91h291l-22 -105l-96 -46c45 -10 76 -44 76 -92c0 -72 -65 -134 -163 -134s-151 62 -151 125c0 4 1 10 1 14l104 6c-1 -4 -1 -7 -1 -8c0 -26 18 -45 49 -45c30 0 48 19 48 43s-20 36 -43 36c-11 0 -20 -3 -23 -4z" />
    <glyph glyph-name="four.numr" horiz-adv-x="435" 
d="M42 351l24 114l201 184h121l-44 -212h60l-19 -86h-59l-15 -71h-113l15 71h-171zM231 437l21 97l-106 -97h85z" />
    <glyph glyph-name="five.numr" horiz-adv-x="393" 
d="M42 403l100 10c0 -29 20 -46 47 -46c25 0 48 18 48 49c0 24 -19 39 -41 39c-21 0 -34 -9 -43 -18l-87 40l78 172h227l-19 -90h-152l-21 -47c12 9 37 14 56 14c72 0 112 -43 112 -106c0 -80 -64 -146 -159 -146c-94 0 -146 58 -146 129z" />
    <glyph glyph-name="six.numr" horiz-adv-x="393" 
d="M391 629l-37 -84c-17 8 -41 18 -79 18c-44 0 -91 -21 -109 -60c17 12 44 20 69 20c74 0 115 -45 115 -106c0 -87 -70 -147 -160 -147c-87 0 -148 63 -148 155c0 145 114 229 235 229c49 0 82 -8 114 -25zM202 446c-24 0 -48 -17 -48 -46c0 -23 16 -39 38 -39
c27 0 49 18 49 48c0 21 -16 37 -39 37z" />
    <glyph glyph-name="seven.numr" horiz-adv-x="357" 
d="M388 649l-19 -92c-42 -30 -146 -113 -195 -277h-120c47 173 181 275 183 276h-179l19 93h311z" />
    <glyph glyph-name="eight.numr" horiz-adv-x="401" 
d="M193 535c0 -16 14 -30 34 -30c26 0 41 17 41 35c0 14 -8 30 -35 30s-40 -20 -40 -35zM155 391c0 -22 20 -35 43 -35c32 0 49 21 49 41c0 15 -9 34 -44 34c-32 0 -48 -23 -48 -40zM201 271c-108 0 -159 45 -159 105c0 51 43 88 95 97c-29 12 -48 44 -48 75
c0 60 60 109 146 109c100 0 145 -45 145 -103c0 -42 -35 -76 -82 -89c32 -10 58 -43 58 -78c0 -68 -65 -116 -155 -116z" />
    <glyph glyph-name="nine.numr" horiz-adv-x="412" 
d="M37 297l36 83c18 -10 44 -18 81 -18c40 0 92 20 108 64c-17 -13 -44 -22 -69 -22c-73 0 -115 46 -115 105c0 87 70 146 160 146c87 0 148 -62 148 -153c0 -147 -112 -231 -234 -231c-49 0 -83 9 -115 26zM226 479c24 0 47 18 47 47c0 22 -16 40 -38 40
c-27 0 -48 -20 -48 -50c0 -20 16 -37 39 -37z" />
    <glyph glyph-name="zero.dnom" horiz-adv-x="422" 
d="M22 141c0 98 53 236 193 236c113 0 160 -69 160 -149c0 -101 -53 -237 -193 -237c-105 0 -160 63 -160 150zM137 143c0 -33 9 -58 47 -58c56 0 77 90 77 142c0 31 -11 56 -49 56c-55 0 -75 -91 -75 -140z" />
    <glyph glyph-name="one.dnom" horiz-adv-x="312" 
d="M172 0h-115l46 217h-93l15 73c66 2 111 43 125 78h100z" />
    <glyph glyph-name="two.dnom" horiz-adv-x="385" 
d="M118 181l66 28c27 11 42 25 42 45c0 14 -9 34 -36 34c-33 0 -48 -24 -48 -56l-99 8c0 74 59 138 152 138c96 0 144 -52 144 -114c0 -61 -41 -103 -111 -132l-76 -32c-3 -1 -5 -4 -6 -5h151l-21 -95h-284c0 83 45 146 126 181z" />
    <glyph glyph-name="three.dnom" horiz-adv-x="430" 
d="M147 159l-27 70l105 49h-167l19 91h291l-22 -105l-96 -46c45 -10 76 -44 76 -92c0 -72 -65 -134 -163 -134s-151 62 -151 125c0 4 1 10 1 14l104 6c-1 -4 -1 -7 -1 -8c0 -26 18 -45 49 -45c30 0 48 19 48 43s-20 36 -43 36c-11 0 -20 -3 -23 -4z" />
    <glyph glyph-name="four.dnom" horiz-adv-x="435" 
d="M5 71l24 114l201 184h121l-44 -212h60l-19 -86h-59l-15 -71h-113l15 71h-171zM194 157l21 97l-106 -97h85z" />
    <glyph glyph-name="five.dnom" horiz-adv-x="393" 
d="M2 122l100 10c0 -29 20 -46 47 -46c25 0 48 18 48 49c0 24 -19 39 -41 39c-21 0 -34 -9 -43 -18l-87 40l78 172h227l-19 -90h-152l-21 -47c12 9 37 14 56 14c72 0 112 -43 112 -106c0 -80 -64 -146 -159 -146c-94 0 -146 58 -146 129z" />
    <glyph glyph-name="six.dnom" horiz-adv-x="392" 
d="M351 350l-37 -84c-17 8 -41 18 -79 18c-44 0 -91 -21 -109 -60c17 12 44 20 69 20c74 0 115 -45 115 -106c0 -87 -70 -147 -160 -147c-87 0 -148 63 -148 155c0 145 114 229 235 229c49 0 82 -8 114 -25zM162 167c-24 0 -48 -17 -48 -46c0 -23 16 -39 38 -39
c27 0 49 18 49 48c0 21 -16 37 -39 37z" />
    <glyph glyph-name="seven.dnom" horiz-adv-x="357" 
d="M343 369l-19 -92c-42 -30 -146 -113 -195 -277h-120c47 173 181 275 183 276h-179l19 93h311z" />
    <glyph glyph-name="eight.dnom" horiz-adv-x="401" 
d="M152 255c0 -16 14 -30 34 -30c26 0 41 17 41 35c0 14 -8 30 -35 30s-40 -20 -40 -35zM114 111c0 -22 20 -35 43 -35c32 0 49 21 49 41c0 15 -9 34 -44 34c-32 0 -48 -23 -48 -40zM160 -9c-108 0 -159 45 -159 105c0 51 43 88 95 97c-29 12 -48 44 -48 75
c0 60 60 109 146 109c100 0 145 -45 145 -103c0 -42 -35 -76 -82 -89c32 -10 58 -43 58 -78c0 -68 -65 -116 -155 -116z" />
    <glyph glyph-name="nine.dnom" horiz-adv-x="412" 
d="M2 17l36 83c18 -10 44 -18 81 -18c40 0 92 20 108 64c-17 -13 -44 -22 -69 -22c-73 0 -115 46 -115 105c0 87 70 146 160 146c87 0 148 -62 148 -153c0 -147 -112 -231 -234 -231c-49 0 -83 9 -115 26zM191 199c24 0 47 18 47 47c0 22 -16 40 -38 40
c-27 0 -48 -20 -48 -50c0 -20 16 -37 39 -37z" />
    <glyph glyph-name="space.frac" horiz-adv-x="52" 
 />
    <glyph glyph-name="a.ordn" horiz-adv-x="451" 
d="M230 549c-46 0 -71 -47 -71 -92c0 -43 26 -63 56 -63c31 0 69 27 69 94c0 43 -24 61 -54 61zM322 649h114l-59 -274c-6 -27 -9 -53 -9 -77h-105c0 12 0 24 2 41c-10 -19 -35 -46 -84 -46c-83 0 -138 68 -138 158c0 124 80 206 176 206c69 0 91 -34 95 -43z" />
    <glyph glyph-name="b.ordn" horiz-adv-x="491" 
d="M184 298h-113l106 507h116l-38 -183c14 17 47 33 84 33c90 0 138 -63 138 -144c0 -131 -82 -221 -182 -221c-59 0 -93 32 -102 50zM300 552c-49 0 -79 -49 -79 -92c0 -45 30 -64 61 -64c32 0 76 28 76 93c0 45 -26 63 -58 63z" />
    <glyph glyph-name="c.ordn" horiz-adv-x="413" 
d="M403 536l-105 -28c-4 22 -23 43 -60 43c-36 0 -80 -30 -80 -93c0 -40 27 -62 63 -62c30 0 52 17 63 38l95 -34c-22 -58 -80 -113 -167 -113c-8 0 -16 1 -24 2c-85 10 -146 77 -146 166c0 127 100 205 204 205c96 0 148 -60 157 -124z" />
    <glyph glyph-name="d.ordn" horiz-adv-x="440" 
d="M468 805l-94 -442c-4 -19 -5 -42 -5 -58v-7h-106c-1 6 -1 11 -1 13c0 10 1 19 3 28c-11 -19 -35 -46 -84 -46c-84 0 -138 69 -138 158c0 125 80 206 175 206c60 0 84 -25 92 -37l40 185h118zM230 550c-46 0 -71 -47 -71 -93c0 -42 26 -62 56 -62c31 0 69 26 69 93
c0 43 -25 62 -54 62z" />
    <glyph glyph-name="e.ordn" horiz-adv-x="386" 
d="M147 517h125v4c0 19 -15 47 -56 47c-35 0 -61 -21 -69 -51zM368 443h-231c1 -31 22 -59 69 -59c25 0 47 13 56 34l92 -39c-21 -45 -70 -91 -159 -91s-164 69 -164 164c0 128 93 208 185 208c101 0 162 -65 162 -153c0 -13 -2 -40 -10 -64z" />
    <glyph glyph-name="f.ordn" horiz-adv-x="324" 
d="M323 551h-70l-53 -253h-118l54 253h-59l21 99h60l9 43c18 78 70 119 148 119c19 0 50 -4 68 -14l-20 -95c0 -1 -11 6 -35 6c-28 0 -45 -17 -51 -42l-3 -17h70z" />
    <glyph glyph-name="g.ordn" horiz-adv-x="468" 
d="M322 496c0 38 -26 56 -53 56c-42 0 -72 -33 -72 -78c0 -35 24 -55 56 -55c33 0 69 29 69 77zM37 293l102 18c0 -30 24 -54 65 -54s72 21 85 72l5 20c-12 -12 -37 -28 -73 -28c-86 0 -142 61 -142 144c0 106 75 192 175 192c62 0 91 -26 99 -42l8 35h113l-68 -323
c-21 -100 -93 -172 -198 -172c-121 0 -171 75 -171 138z" />
    <glyph glyph-name="h.ordn" horiz-adv-x="449" 
d="M381 299h-118l42 195c1 5 1 10 1 15c0 26 -15 45 -44 45c-28 0 -46 -20 -53 -52l-44 -203h-118l107 506h118l-38 -183c20 25 55 37 84 37c77 0 111 -52 111 -117c0 -12 -1 -26 -4 -39z" />
    <glyph glyph-name="i.ordn" horiz-adv-x="248" 
d="M133 744c0 40 31 72 73 72c36 0 60 -24 60 -57c0 -44 -35 -72 -74 -72c-34 0 -59 25 -59 57zM164 298h-118l75 352h117z" />
    <glyph glyph-name="j.ordn" horiz-adv-x="258" 
d="M72 291l76 359h117l-81 -384c-16 -76 -65 -111 -129 -111c-36 0 -64 12 -76 21l19 91c0 1 13 -8 36 -8c19 0 34 9 38 32zM161 744c0 40 30 72 72 72c36 0 60 -24 60 -57c0 -44 -35 -72 -73 -72c-35 0 -59 25 -59 57z" />
    <glyph glyph-name="k.ordn" horiz-adv-x="448" 
d="M275 298l-55 118l-36 -32l-18 -86h-117l107 507h118l-55 -256l110 101h157l-176 -154l97 -198h-132z" />
    <glyph glyph-name="l.ordn" horiz-adv-x="246" 
d="M164 298h-118l107 507h119z" />
    <glyph glyph-name="m.ordn" horiz-adv-x="681" 
d="M386 298h-117l41 195c1 5 1 10 1 15c0 27 -16 46 -45 46c-28 0 -47 -22 -54 -53l-44 -203h-117l61 294c5 25 6 41 6 51v7h114v-4c0 -8 0 -13 -1 -29c20 29 60 42 91 42c48 0 79 -21 97 -50c35 43 89 50 114 50c73 0 118 -54 118 -122c0 -11 -2 -23 -4 -35l-44 -204h-117
l42 195c1 5 1 9 1 14c0 27 -16 47 -45 47s-48 -22 -55 -54z" />
    <glyph glyph-name="n.ordn" horiz-adv-x="449" 
d="M379 298h-118l42 196c1 4 1 9 1 13c0 26 -15 47 -44 47s-46 -21 -53 -52l-45 -204h-117l61 294c5 25 6 41 6 51v7h115v-9c0 -7 0 -17 -1 -24c20 28 58 42 89 42c77 0 112 -52 112 -117c0 -12 -1 -26 -4 -39z" />
    <glyph glyph-name="o.ordn" horiz-adv-x="416" 
d="M235 552c-50 0 -76 -50 -76 -93c0 -41 25 -63 57 -63c31 0 76 27 76 93c0 43 -24 62 -57 63zM408 495c0 -110 -81 -207 -200 -207c-97 0 -165 71 -165 165c0 127 94 207 201 207c98 0 164 -71 164 -165z" />
    <glyph glyph-name="p.ordn" horiz-adv-x="476" 
d="M289 554c-49 0 -77 -51 -77 -94c0 -44 28 -64 59 -64c32 0 77 29 77 95c0 42 -28 63 -59 63zM241 617c15 19 48 38 87 38c89 0 139 -61 139 -144c0 -131 -84 -221 -183 -221c-56 0 -88 23 -100 40l-35 -165h-117l90 427c5 25 6 41 6 51v7h114v-11c0 -7 0 -15 -1 -22z" />
    <glyph glyph-name="q.ordn" horiz-adv-x="448" 
d="M441 650l-104 -485h-118l33 152c-15 -13 -36 -24 -69 -24c-82 1 -135 70 -135 158c0 125 80 206 176 206c70 0 91 -33 95 -43l8 36h114zM235 550c-46 0 -70 -47 -70 -93c0 -42 25 -62 55 -62c31 0 69 26 69 94c0 42 -24 61 -54 61z" />
    <glyph glyph-name="r.ordn" horiz-adv-x="302" 
d="M328 531c-14 5 -28 8 -41 8c-33 0 -71 -11 -86 -82l-34 -159h-117l62 294c5 25 6 36 6 51v7h114v-9c0 -7 0 -17 -1 -25c19 27 49 37 77 37c23 0 36 -5 44 -9z" />
    <glyph glyph-name="s.ordn" horiz-adv-x="356" 
d="M41 405l98 15v-10c0 -24 13 -39 37 -39c22 0 33 11 33 25c0 9 -2 19 -22 27l-29 12c-65 27 -85 63 -85 106c0 65 58 119 139 119c89 0 136 -43 136 -113l-100 -10v6c0 16 -7 35 -35 35c-16 0 -30 -10 -30 -25c0 -10 7 -18 16 -22l43 -17c61 -25 82 -63 82 -107
c0 -61 -52 -119 -142 -119c-124 0 -141 77 -141 111v6z" />
    <glyph glyph-name="t.ordn" horiz-adv-x="302" 
d="M235 547l-24 -114c-1 -4 -1 -8 -1 -12c0 -20 14 -29 35 -29c6 0 14 1 26 4l-20 -92c-8 -4 -26 -11 -52 -11c-69 0 -110 40 -110 100c0 10 1 20 3 31l26 123h-60l21 103h19c38 0 56 21 65 57l10 42h105l-22 -99h68l-23 -103h-66z" />
    <glyph glyph-name="u.ordn" horiz-adv-x="439" 
d="M116 649h118l-42 -196c-1 -4 -1 -9 -1 -13c0 -26 15 -47 44 -47s46 21 53 52l45 204h117l-61 -294c-5 -25 -6 -41 -6 -51v-7h-115v9c0 7 0 17 1 24c-20 -28 -58 -42 -89 -42c-77 0 -112 52 -112 117c0 12 1 26 4 39z" />
    <glyph glyph-name="v.ordn" horiz-adv-x="371" 
d="M413 650l-200 -352h-118l-62 352h122l24 -205l104 205h130z" />
    <glyph glyph-name="w.ordn" horiz-adv-x="592" 
d="M274 650h125l21 -193l87 193h119l-176 -352h-114l-26 217l-110 -217h-120l-33 352h116l13 -192z" />
    <glyph glyph-name="x.ordn" horiz-adv-x="417" 
d="M217 383l-73 -85h-137l162 181c4 -9 -96 179 -92 171h130c-3 5 43 -89 40 -84l71 84h140c8 8 -171 -188 -163 -180c-5 9 97 -180 93 -172h-130z" />
    <glyph glyph-name="y.ordn" horiz-adv-x="392" 
d="M153 165h-128l112 185l-69 300h123l33 -177l102 177h129z" />
    <glyph glyph-name="z.ordn" horiz-adv-x="408" 
d="M332 298h-297l21 104l174 149h-137l21 99h291l-20 -96l-185 -156h154z" />
    <glyph glyph-name="space.tf" 
 />
    <glyph glyph-name="numbersign.tf" 
d="M52 392v105h103l33 152h115l-33 -152h100l33 152h115l-33 -152h83v-105h-105l-28 -130h82v-106h-105l-33 -156h-115l33 156h-100l-33 -156h-115l33 156h-80v106h103l28 130h-81zM248 392l-28 -130h100l28 130h-100z" />
    <glyph glyph-name="dollar.tf" 
d="M148 -115l24 116c-95 31 -151 107 -151 195c0 7 0 15 1 25l143 24c-1 -7 -2 -14 -2 -21c0 -54 29 -106 109 -107c53 0 80 26 80 63c0 26 -11 46 -43 60l-75 32c-89 38 -132 101 -132 179c0 118 95 198 210 209l21 105h126l-25 -116c106 -34 137 -125 137 -178l-144 -24
c0 19 -8 85 -92 85c-48 0 -77 -33 -77 -68c0 -30 18 -49 42 -60l69 -29c103 -43 142 -106 142 -185c0 -97 -77 -194 -217 -203l-21 -102h-125z" />
    <glyph glyph-name="percent.tf" 
d="M227 527c0 25 -16 47 -43 47c-28 0 -56 -23 -56 -64c0 -26 16 -47 42 -47c28 0 57 22 57 64zM191 659c74 0 128 -57 128 -128c0 -92 -77 -154 -156 -154c-73 0 -127 56 -127 128c0 91 76 154 155 154zM548 536l-21 -101l-519 -328l21 101zM445 143c0 25 -16 47 -42 47
c-28 0 -57 -23 -57 -64c0 -26 16 -47 43 -47c28 0 56 22 56 64zM537 147c0 -92 -77 -154 -155 -154c-74 0 -128 56 -128 128c0 91 76 154 156 154c73 0 127 -57 127 -128z" />
    <glyph glyph-name="plus.tf" 
d="M341 236v-195h-128v195h-190v124h190v195h128v-195h190v-124h-190z" />
    <glyph glyph-name="comma.tf" 
d="M162 85c0 67 54 114 120 114c68 0 109 -52 109 -117c0 -154 -121 -265 -269 -274l18 80c50 5 124 47 138 114c-4 -2 -16 -4 -25 -4c-57 0 -91 38 -91 87z" />
    <glyph glyph-name="period.tf" 
d="M255 -8c-63 0 -103 48 -103 102c0 65 56 121 127 121c62 0 101 -45 101 -100c0 -65 -56 -123 -125 -123z" />
    <glyph glyph-name="zero.tf" 
d="M173 238c0 -65 19 -114 83 -114c101 0 139 189 139 286c0 62 -15 115 -83 115c-102 0 -139 -191 -139 -287zM249 -15c-172 3 -230 126 -230 248c0 148 63 431 298 431c173 0 234 -125 234 -250c0 -152 -67 -429 -302 -429z" />
    <glyph glyph-name="one.tf" 
d="M31 131h159l63 297h-146l23 104c87 1 166 51 191 117h136l-110 -518h165l-28 -131h-481z" />
    <glyph glyph-name="two.tf" 
d="M-32 0c1 1 4 27 4 28c21 120 75 210 210 269l117 51c60 26 93 55 93 103c0 37 -21 74 -83 74c-69 0 -98 -53 -98 -128l-145 15c0 144 97 252 254 252c155 0 228 -92 228 -195c0 -109 -67 -182 -176 -230l-135 -59c-22 -10 -42 -25 -57 -48h297l-28 -132h-481z" />
    <glyph glyph-name="three.tf" 
d="M208 293l-51 109l188 115h-271l26 132h471l-29 -145l-180 -113c81 -11 141 -77 141 -167c0 -123 -107 -239 -265 -239s-244 106 -244 216c0 3 0 7 1 13l154 17c-1 -7 -1 -12 -1 -15c0 -56 37 -95 93 -95c62 0 103 40 103 99c0 54 -42 83 -89 83c-16 0 -35 -4 -47 -10z
" />
    <glyph glyph-name="four.tf" 
d="M-14 135l33 160l337 354h186l-81 -382h86l-28 -132h-86l-28 -135h-157l28 135h-290zM304 267l45 213l-198 -213h153z" />
    <glyph glyph-name="five.tf" 
d="M14 197l146 27c-1 -5 -1 -10 -1 -11c0 -49 37 -95 96 -95c55 0 107 36 107 106c0 55 -45 84 -95 84c-36 0 -65 -14 -84 -32l-128 58l132 315h375l-28 -132h-261l-47 -114c26 18 64 24 94 24c131 0 201 -74 201 -187c0 -139 -102 -256 -267 -256c-149 0 -240 105 -240 213
z" />
    <glyph glyph-name="six.tf" 
d="M599 614l-66 -120c-33 18 -80 28 -126 28c-85 0 -178 -47 -214 -149c31 42 89 59 136 59c128 0 198 -75 198 -186c0 -149 -112 -260 -264 -260c-142 0 -245 102 -245 254c0 231 165 416 405 416c83 0 147 -20 176 -42zM279 308c-57 0 -106 -42 -106 -103
c0 -50 35 -86 91 -86s105 40 105 104c0 50 -36 85 -90 85z" />
    <glyph glyph-name="seven.tf" 
d="M51 518l27 131h519l-26 -126c-53 -34 -270 -207 -364 -523h-167c76 278 269 471 334 518h-323z" />
    <glyph glyph-name="eight.tf" 
d="M311 387c55 0 87 39 87 80c0 32 -23 67 -77 67c-60 0 -86 -43 -86 -80c0 -31 19 -67 76 -67zM164 190c0 -46 39 -77 91 -77c63 0 99 46 99 89c0 37 -26 76 -92 76c-64 0 -98 -48 -98 -88zM505 185c0 -128 -127 -200 -257 -200c-121 0 -237 56 -237 182
c0 88 68 151 160 171c-46 21 -86 72 -86 132c0 114 105 194 245 194c147 0 227 -79 227 -177c0 -76 -53 -139 -135 -165c52 -21 83 -82 83 -137z" />
    <glyph glyph-name="nine.tf" 
d="M191 427c0 -49 35 -83 89 -83c58 0 105 40 105 101c0 51 -35 86 -91 86s-103 -40 -103 -104zM-30 37l62 120c40 -23 82 -33 125 -33c95 0 179 55 210 151c-33 -37 -81 -55 -128 -55c-125 0 -205 85 -205 198c0 150 118 246 265 246c142 0 245 -101 245 -254
c0 -266 -176 -425 -389 -425c-66 0 -131 15 -185 52z" />
    <glyph glyph-name="colon.tf" 
d="M228 -7c-57 0 -93 42 -93 92c0 59 51 111 115 111c56 0 93 -42 93 -91c0 -60 -51 -112 -115 -112zM294 303c-57 0 -93 42 -93 92c0 60 51 111 115 111c56 0 92 -42 92 -91c0 -60 -50 -112 -114 -112z" />
    <glyph glyph-name="semicolon.tf" 
d="M139 75c0 62 49 104 109 104c62 0 99 -47 99 -107c0 -139 -109 -241 -244 -249l16 73c45 4 113 43 126 104c-4 -2 -16 -4 -24 -4c-51 0 -82 35 -82 79zM300 302c-58 0 -94 43 -94 93c0 59 51 111 116 111c57 0 92 -41 92 -92c0 -60 -51 -112 -114 -112z" />
    <glyph glyph-name="less.tf" 
d="M62 244v108l439 224v-138l-289 -137l289 -139v-140z" />
    <glyph glyph-name="equal.tf" 
d="M31 339v122h495v-122h-495zM31 138v122h495v-122h-495z" />
    <glyph glyph-name="greater.tf" 
d="M501 353v-108l-439 -223v137l288 138l-288 139v140z" />
    <glyph glyph-name="cent.tf" 
d="M171 0l20 93c-82 31 -135 107 -135 202c0 149 108 249 233 265l19 89h115l-21 -97c79 -24 123 -87 133 -148l-130 -35c-7 33 -34 65 -89 65s-118 -46 -118 -137c0 -58 39 -92 95 -92c46 0 78 27 94 58l118 -43c-30 -70 -99 -136 -203 -144l-16 -76h-115z" />
    <glyph glyph-name="sterling.tf" horiz-adv-x="591" 
d="M47 273l23 110h65c-3 17 -5 34 -5 54c0 118 78 225 229 225c150 0 199 -92 199 -174c0 -14 -2 -25 -2 -26l-134 -13c0 1 1 9 1 18c0 40 -20 71 -69 71c-43 0 -85 -28 -85 -105c0 -16 3 -33 6 -50h169l-24 -110h-134c-5 -61 -36 -120 -93 -143h137c53 0 79 34 85 75
l127 -22c-16 -107 -95 -183 -205 -183h-350l28 127c78 12 124 78 132 146h-100z" />
    <glyph glyph-name="currency.tf" 
d="M48 248c0 37 9 71 26 101l-71 72l90 90l74 -74c30 14 63 23 99 23c35 0 69 -8 98 -23l74 74l91 -90l-71 -72c16 -30 26 -64 26 -101c0 -38 -9 -72 -26 -102l71 -70l-91 -91l-73 73c-30 -14 -64 -22 -99 -22c-36 0 -69 8 -99 23l-74 -74l-90 91l70 70
c-16 30 -25 64 -25 102zM173 248c0 -53 38 -91 93 -91s93 38 93 91s-38 91 -93 91s-93 -38 -93 -91z" />
    <glyph glyph-name="yen.tf" 
d="M49 294l22 106h86l-82 249h161l64 -236l164 236h172l-189 -249h95l-22 -106h-169l-13 -63h168l-23 -106h-167l-26 -125h-146l26 125h-158l23 106h157l14 63h-157z" />
    <glyph glyph-name="section.tf" 
d="M9 4l147 9c-2 -13 -2 -17 -2 -23c0 -44 27 -66 71 -66c35 0 66 26 66 62c0 18 -10 36 -29 49l-87 60c-59 41 -108 87 -108 159c0 81 51 125 103 147c-31 33 -44 75 -44 115c0 129 123 208 233 208c131 0 204 -78 204 -176c0 -13 -1 -25 -2 -33l-145 -9c1 10 2 15 2 25
c0 44 -32 64 -71 64c-35 0 -66 -27 -66 -62c0 -18 10 -36 26 -47l90 -60c58 -40 107 -88 107 -159c0 -83 -51 -127 -102 -148c29 -34 42 -77 42 -116c0 -129 -121 -208 -231 -208c-132 0 -206 78 -206 176c0 10 0 17 2 33zM338 278l-92 64c-22 -14 -35 -33 -35 -58
c0 -16 7 -31 23 -42l92 -64c22 13 34 33 34 59c0 15 -6 30 -22 41z" />
    <glyph glyph-name="logicalnot.tf" 
d="M528 129h-130v195h-369v125h499v-320z" />
    <glyph glyph-name="plusminus.tf" 
d="M350 314v-116h-128v116h-178v124h178v117h128v-117h178v-124h-178zM44 40v124h484v-124h-484z" />
    <glyph glyph-name="multiply.tf" 
d="M121 43l-90 92l163 164l-163 165l90 90l164 -165l164 165l90 -90l-164 -165l164 -164l-90 -92l-164 165z" />
    <glyph glyph-name="divide.tf" 
d="M26 237v124h505v-124h-505zM190 114c0 45 38 83 85 83s85 -38 85 -83c0 -46 -38 -85 -85 -85s-85 39 -85 85zM190 486c0 46 38 84 85 84s85 -38 85 -84s-38 -85 -85 -85s-85 39 -85 85z" />
    <glyph glyph-name="florin.tf" 
d="M141 30l69 341h-92v126h118l16 81c23 114 116 163 199 163c50 0 65 -5 96 -16v-130c-20 5 -39 8 -65 8c-24 0 -68 -11 -79 -68l-8 -38h110v-126h-136l-78 -384c-24 -115 -114 -163 -198 -163c-50 0 -68 5 -100 15v131c21 -5 44 -8 70 -8c23 0 66 11 78 68z" />
    <glyph glyph-name="uni2007.tf" 
 />
    <glyph glyph-name="uni2008.tf" 
 />
    <glyph glyph-name="perthousand.tf" 
d="M41 525c0 80 67 136 136 136c66 0 113 -50 113 -113c0 -82 -68 -136 -137 -136c-65 0 -112 50 -112 113zM239 -9c-66 0 -112 51 -112 113c0 81 67 137 136 137c32 0 60 -13 80 -32c23 20 54 32 86 32c66 0 113 -50 113 -113c0 -82 -68 -137 -137 -137
c-32 0 -59 12 -79 32c-25 -20 -56 -32 -87 -32zM564 601l-23 -107l-528 -325l23 105zM171 585c-24 0 -49 -21 -49 -57c0 -23 14 -39 37 -39c25 0 50 18 50 54c0 25 -14 41 -38 42zM257 165c-24 0 -49 -21 -49 -57c0 -23 14 -39 37 -39c25 0 50 18 50 54c0 25 -14 41 -38 42z
M423 165c-24 0 -49 -21 -49 -57c0 -23 14 -39 37 -39c25 0 50 18 50 54c0 25 -14 41 -38 42z" />
    <glyph glyph-name="Euro.tf" 
d="M53 349l21 101h66c61 131 193 213 337 213c78 0 123 -17 159 -37l-64 -125c-24 15 -63 27 -106 27c-51 0 -114 -23 -157 -78h237l-50 -101h-230c-3 -15 -6 -35 -6 -54h211l-49 -102h-138c31 -49 87 -71 154 -71c21 0 40 3 57 8l9 -131c-22 -10 -60 -16 -97 -16
c-147 0 -255 85 -290 210h-97l21 102h64c0 18 1 37 5 54h-57z" />
    <glyph glyph-name="minus.tf" 
d="M27 237v124h501v-124h-501z" />
    <glyph glyph-name="approxequal.tf" 
d="M465 275l80 -66c-37 -70 -100 -109 -171 -109c-36 0 -74 10 -111 31l-48 26c-17 9 -34 13 -50 13c-32 0 -62 -16 -84 -48l-82 65c37 70 100 108 171 108c36 0 73 -9 110 -29l48 -26c17 -9 35 -14 52 -14c32 0 63 16 85 49zM465 479l80 -65c-37 -70 -100 -109 -171 -109
c-36 0 -74 10 -111 31l-48 26c-16 9 -33 13 -49 13c-32 0 -62 -17 -85 -49l-82 65c37 70 101 109 172 109c35 0 72 -9 109 -29l48 -26c17 -10 35 -14 53 -14c32 0 62 16 84 48z" />
    <glyph glyph-name="notequal.tf" 
d="M30 339v122h286l54 88h132l-54 -88h77v-122h-152l-48 -79h200v-122h-275l-59 -96h-132l59 96h-88v122h163l48 79h-211z" />
    <glyph glyph-name="lessequal.tf" 
d="M66 40v124h439v-124h-439zM66 322v120l439 130v-123l-266 -65l266 -66v-126z" />
    <glyph glyph-name="greaterequal.tf" 
d="M497 164v-124h-439v124h439zM497 442v-120l-439 -130v123l266 65l-266 67v125z" />
    <glyph glyph-name="parenleft.case" horiz-adv-x="340" 
d="M26 245c0 255 124 452 337 584l69 -91c-159 -114 -281 -245 -281 -488c0 -115 45 -232 105 -317l-99 -70c-68 89 -131 227 -131 382z" />
    <glyph glyph-name="parenright.case" horiz-adv-x="342" 
d="M314 446c0 -254 -125 -451 -337 -583l-70 91c159 115 281 244 281 487c0 115 -44 233 -104 318l99 70c68 -89 131 -227 131 -383z" />
    <glyph glyph-name="hyphen.case" horiz-adv-x="368" 
d="M316 283h-299l29 137h300z" />
    <glyph glyph-name="bracketleft.case" horiz-adv-x="336" 
d="M230 -118h-249l199 942h250l-24 -113h-124l-151 -713h123z" />
    <glyph glyph-name="bracketright.case" horiz-adv-x="344" 
d="M154 -118h-248l24 116h122l152 713h-124l24 113h250z" />
    <glyph glyph-name="braceleft.case" horiz-adv-x="378" 
d="M23 293l26 124c56 0 102 24 116 88l26 122c31 145 117 197 237 197h45l-24 -113h-38c-41 0 -81 -18 -94 -82l-31 -147c-14 -64 -55 -116 -125 -129c48 -15 72 -54 72 -102c0 -11 -1 -22 -3 -33l-28 -134c-2 -9 -3 -18 -3 -25c0 -46 32 -61 67 -61h31l-24 -113h-36
c-99 0 -165 56 -165 155c0 17 2 36 7 57l23 108c2 9 3 17 3 24c0 46 -34 64 -82 64z" />
    <glyph glyph-name="braceright.case" horiz-adv-x="379" 
d="M356 416l-26 -124c-57 0 -103 -24 -117 -88l-26 -122c-31 -145 -116 -197 -237 -197h-45l25 113h37c40 0 80 18 94 82l31 147c13 64 54 116 125 129c-48 15 -72 53 -72 101c0 11 1 22 4 34l27 134c2 10 3 18 3 26c0 45 -32 60 -67 60h-31l24 113h36
c99 0 165 -57 165 -156c0 -17 -2 -36 -6 -56l-23 -108c-2 -9 -3 -18 -3 -25c0 -46 34 -63 82 -63z" />
    <glyph glyph-name="exclamdown.case" horiz-adv-x="311" 
d="M239 487l-68 -487h-183l139 487h112zM294 641c0 -52 -43 -95 -95 -95c-48 0 -77 36 -77 77c0 53 46 95 93 95s79 -34 79 -77z" />
    <glyph glyph-name="guillemotleft.case" horiz-adv-x="542" 
d="M237 152h-135l-100 199l179 196h147l-189 -204zM470 152h-135l-100 199l179 196h147l-189 -204z" />
    <glyph glyph-name="uni00AD.case" horiz-adv-x="368" 
d="M317 285h-299l29 137h300z" />
    <glyph glyph-name="guillemotright.case" horiz-adv-x="531" 
d="M44 547h133l102 -199l-179 -196h-148l189 204zM274 547h133l102 -199l-179 -196h-148l189 204z" />
    <glyph glyph-name="questiondown.case" horiz-adv-x="506" 
d="M234 489h116c-1 -58 -8 -136 -103 -188l-58 -32c-35 -20 -51 -52 -51 -82c0 -33 23 -68 79 -68c66 0 100 55 100 115l138 -14c-1 -130 -100 -235 -247 -235c-154 0 -226 93 -226 181c0 99 56 163 136 209l43 25c46 26 67 45 73 89zM392 641c0 -52 -44 -95 -95 -95
c-48 0 -78 36 -78 77c0 53 46 95 94 95c47 0 79 -34 79 -77z" />
    <glyph glyph-name="endash.case" horiz-adv-x="624" 
d="M553 286h-517l27 132h518z" />
    <glyph glyph-name="emdash.case" horiz-adv-x="1060" 
d="M979 286h-933l27 132h934z" />
    <glyph glyph-name="guilsinglleft.case" horiz-adv-x="309" 
d="M237 152h-135l-100 199l179 196h147l-189 -204z" />
    <glyph glyph-name="guilsinglright.case" horiz-adv-x="300" 
d="M44 547h133l102 -199l-179 -196h-148l189 204z" />
    <glyph glyph-name="G.ss01" horiz-adv-x="754" 
d="M417 724c200 0 291 -121 307 -220l-155 -48c-11 54 -54 116 -163 116c-103 0 -213 -89 -213 -255c0 -103 62 -182 174 -182c103 0 156 61 172 109h-226l29 135h378c0 -216 -126 -395 -366 -395c-185 0 -323 140 -323 324c0 261 187 415 386 416z" />
    <glyph glyph-name="r.ss03" horiz-adv-x="437" 
d="M326 309c-55 0 -90 41 -90 89c0 58 49 108 111 108c55 0 90 -41 90 -88c0 -58 -49 -109 -111 -109zM244 450l-96 -450h-152l89 423c9 41 9 64 9 74h154c0 -6 0 -27 -4 -47z" />
    <glyph glyph-name="ampersand.ss04" horiz-adv-x="682" 
d="M639 225h-61c-25 -137 -137 -240 -296 -240c-180 0 -266 99 -266 207c0 130 105 196 185 207c-49 21 -83 73 -83 130c0 123 121 196 232 196c165 0 228 -95 228 -186c0 -15 -2 -30 -3 -37h-149c1 5 3 13 3 22c0 40 -19 75 -79 75c-39 0 -85 -29 -85 -79
c0 -48 37 -68 76 -68l-27 -127h-8c-52 0 -129 -24 -129 -116c0 -46 36 -93 113 -93c64 0 120 39 134 109h-78l26 126h293z" />
    <glyph glyph-name="one.ss05" horiz-adv-x="467" 
d="M5 131h129l63 297h-135l22 104c88 1 156 51 182 117h135l-110 -518h153l-28 -131h-439z" />
    <glyph glyph-name="registered.ss06" horiz-adv-x="394" 
d="M33 526c0 106 86 192 192 192s192 -86 192 -192s-86 -192 -192 -192s-192 86 -192 192zM87 526c0 -78 61 -139 138 -139s137 61 137 139s-60 139 -137 139s-138 -61 -138 -139zM233 431l-13 65h-12l-14 -65h-57l42 196h82c35 0 59 -23 59 -56c0 -31 -19 -57 -48 -67
l20 -73h-59zM218 543h16c19 0 27 9 27 22c0 12 -8 15 -18 15h-16z" />
    <glyph glyph-name="caron.alt" horiz-adv-x="190" 
d="M202 709l-120 -207h-103l73 207h150z" />
    <glyph glyph-name="commaaccent" horiz-adv-x="186" 
d="M-9 548l12 52c7 -1 14 -2 22 -2c29 0 62 9 74 38c-3 -1 -12 -4 -23 -4c-45 0 -67 29 -67 60c0 41 35 75 83 75c55 0 82 -37 82 -81c0 -92 -68 -141 -148 -141c-11 0 -23 1 -35 3z" />
    <glyph glyph-name="commaturn" horiz-adv-x="166" 
d="M156 622c0 -41 -35 -76 -82 -76c-53 0 -83 40 -83 84c0 88 74 141 151 141c17 0 27 -2 32 -3l-11 -53c-5 1 -12 3 -24 3c-40 0 -67 -21 -75 -40c5 2 15 6 27 6c47 0 65 -31 65 -62z" />
    <glyph glyph-name="dieresis.narrow" horiz-adv-x="325" 
d="M-12 624c0 43 39 82 85 82c39 0 66 -31 66 -67c0 -48 -43 -82 -83 -82c-41 0 -68 30 -68 67zM170 624c0 43 38 82 84 82c39 0 66 -31 66 -67c0 -48 -42 -82 -82 -82c-42 0 -68 30 -68 67z" />
    <glyph glyph-name="dieresis.uc.narrow" horiz-adv-x="348" 
d="M-11 817c0 43 38 85 85 85c41 0 69 -31 69 -69c0 -49 -39 -84 -84 -84c-42 0 -70 28 -70 68zM189 817c0 43 38 85 85 85c41 0 69 -31 69 -69c0 -49 -39 -84 -84 -84c-42 0 -70 28 -70 68z" />
    <glyph glyph-name="grave.uc" horiz-adv-x="274" 
d="M118 759l-120 132h174l76 -132h-130z" />
    <glyph glyph-name="dieresis.uc" horiz-adv-x="436" 
d="M-6 817c0 42 38 87 87 87c43 0 72 -33 72 -71c0 -50 -42 -86 -86 -86s-73 30 -73 70zM267 817c0 42 38 87 88 87c42 0 71 -33 71 -71c0 -50 -41 -86 -86 -86c-44 0 -73 30 -73 70z" />
    <glyph glyph-name="macron.uc" horiz-adv-x="307" 
d="M290 771h-310l22 109h311z" />
    <glyph glyph-name="acute.uc" horiz-adv-x="274" 
d="M294 891l-177 -132h-143l132 132h188z" />
    <glyph glyph-name="circumflex.uc" horiz-adv-x="389" 
d="M114 759h-139l150 132h146l95 -132h-135l-44 65z" />
    <glyph glyph-name="caron.uc" horiz-adv-x="389" 
d="M259 891h145l-152 -132h-146l-95 132h132l43 -65z" />
    <glyph glyph-name="breve.uc" horiz-adv-x="340" 
d="M160 753c-83 0 -148 40 -148 119c0 3 0 10 2 19h104c-1 -5 -1 -7 -1 -9c0 -24 17 -40 49 -40c34 0 58 22 65 49h116c-16 -65 -80 -138 -187 -138z" />
    <glyph glyph-name="dotaccent.uc" horiz-adv-x="175" 
d="M-10 834c0 47 44 94 98 94c46 0 80 -35 80 -77c0 -56 -45 -98 -97 -98c-47 0 -81 37 -81 81z" />
    <glyph glyph-name="ring.uc" horiz-adv-x="278" 
d="M135 927c-28 0 -53 -22 -53 -53c0 -24 19 -41 45 -41c25 0 53 20 53 53c0 26 -20 41 -45 41zM-10 868c0 80 70 148 153 148c72 0 130 -52 130 -122c0 -89 -78 -149 -154 -149c-73 0 -129 52 -129 123z" />
    <glyph glyph-name="tilde.uc" horiz-adv-x="344" 
d="M370 895c-14 -104 -66 -144 -128 -144c-30 0 -54 12 -76 25c-19 12 -36 23 -51 23c-17 0 -31 -13 -35 -42h-93c11 105 72 140 133 140c32 0 54 -11 74 -23c18 -11 32 -23 47 -23c18 0 31 13 36 44h93z" />
    <glyph glyph-name="hungarumlaut.uc" horiz-adv-x="364" 
d="M189 891l-121 -132h-96l76 132h141zM375 891l-138 -132h-98l92 132h144z" />
    <glyph glyph-name="caron.alt.uc" horiz-adv-x="190" 
d="M209 709l-125 -217h-107l77 217h155z" />
    <glyph glyph-name="undercommaaccent" horiz-adv-x="166" 
d="M-8 -120c0 41 36 75 83 75c55 0 83 -38 83 -82c0 -92 -71 -141 -148 -141c-11 0 -25 2 -35 4l11 51c7 -1 14 -1 21 -1c30 0 63 8 76 38c-5 -2 -13 -4 -24 -4c-45 0 -67 29 -67 60z" />
    </font>
</defs>
</svg>
